清风文摘

 找回密码
 邀请注册
搜索
热搜:
查看: 326|回复: 14

【WAV】羣星 - 1983 新歌ENCORE 复刻2016 (百度)

[复制链接]
发表于 2017-1-11 21:08:44 | 显示全部楼层 |阅读模式
群星 - 1983 新歌ENCORE 复刻2016 (百度)


去年这张黑胶也被复刻了,看到这里没有发过,当时抓完一直没时间发,这几天有时间了发出来了,呵呵。

专辑:新歌 ENCORE
发行:EMI  1983
          环球 2016
曲目:
1. 可曾幸福过 - 叶丽仪
2. 白衫白裤 - 黄正光
3. 过去,现在,将来 - 特乐乐队
4. 花间流浪 - 卢业媚
5. 做个真我 - 曾路得
6. 斩柴佬 - 李龙基
7. 影子 - 特乐乐队
8. 最忆是当初 - 卢业媚
9. 爱的誓言 - 叶丽仪
10. 无谓令我半天吊 - 李龙基
11. 开心最紧要 - 曾路得
12. 开心仔 - 黄正光



游客,如果您要查看本帖隐藏内容请回复

Exact Audio Copy V1.0 beta 4 from 7. December 2014

EAC extraction logfile from 6. November 2016, 11:56

羣星 / 新歌ENCORE

Used drive  : PIONEER DVD-RW  DVR-221L   Adapter: 1  ID: 0

Read mode               : Secure
Utilize accurate stream : Yes
Defeat audio cache      : Yes
Make use of C2 pointers : No

Read offset correction                      : 6
Overread into Lead-In and Lead-Out          : No
Fill up missing offset samples with silence : Yes
Delete leading and trailing silent blocks   : No
Null samples used in CRC calculations       : Yes
Used interface                              : Native Win32 interface for Win NT & 2000

Used output format : Internal WAV Routines
Sample format      : 44.100 Hz; 16 Bit; Stereo


TOC of the extracted CD

     Track |   Start  |  Length  | Start sector | End sector
    ---------------------------------------------------------
        1  |  0:00.00 |  2:38.45 |         0    |    11894   
        2  |  2:38.45 |  3:20.71 |     11895    |    26965   
        3  |  5:59.41 |  3:38.30 |     26966    |    43345   
        4  |  9:37.71 |  3:08.44 |     43346    |    57489   
        5  | 12:46.40 |  2:59.32 |     57490    |    70946   
        6  | 15:45.72 |  3:11.49 |     70947    |    85320   
        7  | 18:57.46 |  3:18.07 |     85321    |   100177   
        8  | 22:15.53 |  2:30.40 |    100178    |   111467   
        9  | 24:46.18 |  3:57.14 |    111468    |   129256   
       10  | 28:43.32 |  3:29.44 |    129257    |   144975   
       11  | 32:13.01 |  2:48.22 |    144976    |   157597   
       12  | 35:01.23 |  2:13.01 |    157598    |   167573   


Range status and errors

Selected range

     Filename F:\Various Artists\羣星 - 1983.[新歌ENCORE]\羣星 - 新歌ENCORE.wav

     Peak level 100.0 %
     Extraction speed 6.7 X
     Range quality 100.0 %
     Copy CRC FC1CBB01
     Copy OK

No errors occurred


AccurateRip summary

Track  1  not present in database
Track  2  not present in database
Track  3  not present in database
Track  4  not present in database
Track  5  not present in database
Track  6  not present in database
Track  7  not present in database
Track  8  not present in database
Track  9  not present in database
Track 10  not present in database
Track 11  not present in database
Track 12  not present in database

None of the tracks are present in the AccurateRip database

End of status report

---- CUETools DB Plugin V2.1.4

[CTDB TOCID: sU0.rj0fGeQTDhzRIr4IH1ss.iI-] found
Submit result: sU0.rj0fGeQTDhzRIr4IH1ss.iI- has been confirmed
Track | CTDB Status
  1   | (3/3) Accurately ripped
  2   | (3/3) Accurately ripped
  3   | (3/3) Accurately ripped
  4   | (3/3) Accurately ripped
  5   | (3/3) Accurately ripped
  6   | (3/3) Accurately ripped
  7   | (3/3) Accurately ripped
  8   | (3/3) Accurately ripped
  9   | (3/3) Accurately ripped
10   | (3/3) Accurately ripped
11   | (3/3) Accurately ripped
12   | (3/3) Accurately ripped


==== Log checksum B1B7723E492BF4AC2AE54B0E61E55E131E1E4A038DF1DB40B95CFFAC16846C59 ====


本帖子中包含更多资源

您需要 登录 才可以下载或查看,没有帐号?邀请注册

x

评分

参与人数 1威望 +10 清风币 +10 魅力 +10 钻石 +1 收起 理由
翠峰 + 10 + 10 + 10 + 1 感谢分享,辛苦了!

查看全部评分

回复

使用道具 举报

发表于 2017-1-11 21:48:23 | 显示全部楼层
这张还真是没有听过。
回复 支持 反对

使用道具 举报

发表于 2017-1-11 21:54:39 | 显示全部楼层
算得上骨灰碟,必须捧场
回复 支持 反对

使用道具 举报

发表于 2017-1-11 22:48:10 来自手机 | 显示全部楼层
EMI16復刻系列鐘意滴一張合輯感謝耍兄無私奉獻!
回复 支持 反对

使用道具 举报

发表于 2017-1-11 22:57:33 | 显示全部楼层
好专辑好歌,感谢分享。
回复 支持 反对

使用道具 举报

发表于 2017-1-12 02:30:22 | 显示全部楼层
EMI早年很多出品都是经典制作,环球出复刻真是太好了,谢谢分享!
回复 支持 反对

使用道具 举报

发表于 2017-1-12 07:14:04 | 显示全部楼层
原来李隆基早年时唱歌的啊
回复 支持 反对

使用道具 举报

发表于 2017-1-12 23:17:37 | 显示全部楼层
EMI80年代初每年都出一张精选呀,曲目不错,谢谢
回复 支持 反对

使用道具 举报

发表于 2017-1-12 23:30:49 | 显示全部楼层
很久没上论坛,问候耍哥好,谢谢分享好蝶
回复 支持 反对

使用道具 举报

发表于 2017-1-13 18:33:15 | 显示全部楼层
特乐乐队,第一次听说,很稀罕见的碟,谢谢楼主
回复 支持 反对

使用道具 举报

发表于 2017-1-13 18:57:29 | 显示全部楼层
感謝你精心分享,谢谢
回复 支持 反对

使用道具 举报

发表于 2017-1-14 14:47:32 | 显示全部楼层
群星百花齐放,谢谢楼主提供。
回复 支持 反对

使用道具 举报

发表于 2017-1-14 17:00:46 | 显示全部楼层
不错的合辑。。感谢了。。
回复 支持 反对

使用道具 举报

发表于 2017-1-28 14:38:24 | 显示全部楼层
歌曲不熟,听听。
回复 支持 反对

使用道具 举报

发表于 2017-4-5 22:26:05 | 显示全部楼层
这张专辑很经典,总算出了复刻版
最喜欢这首卢业媚(最忆是当初)和(花间流浪)当初看TVB的《唐伯虎三戏秋香》,就爱上这两首歌曲了
回复 支持 反对

使用道具 举报

您需要登录后才可以回帖 登录 | 邀请注册

本版积分规则

Archiver|小黑屋|清风文摘 ( 津ICP备14006513号

GMT+8, 2017-9-21 22:13 , Processed in 0.286506 second(s), 29 queries .

Powered by Discuz! X3.2

© 2001-2013 Comsenz Inc.

快速回复 返回顶部 返回列表