清风文摘

 找回密码
 邀请注册
查看: 58|回复: 2

[专辑] Van Halen -1995- Balance (Japanese Edition)[FLAC][百度]

[复制链接]
发表于 2017-1-11 10:57:45 | 显示全部楼层 |阅读模式
感谢原创!





01. The Seventh Seal [05:18]
02. Can't Stop Lovin' You [04:07]
03. Don't Tell Me {What Love Can Do} [05:56]
04. Amsterdam [04:44]
05. Big Fat Money [03:57]
06. Strung Out [01:28]
07. Not Enough [05:12]
08. Aftershock [05:28]
09. Doin' Time [01:41]
10. Baluchitherium [04:04]
11. Take Me Back {Deja Vu} [04:41]
12. Feelin' [06:34]
13. Crossing Over [05:03]




百度链接:


游客,如果您要查看本帖隐藏内容请回复




本帖子中包含更多资源

您需要 登录 才可以下载或查看,没有帐号?邀请注册

x

评分

参与人数 1威望 +5 清风币 +5 魅力 +5 珍珠 +1 收起 理由
翠峰 + 5 + 5 + 5 + 1 再接再厉,你是最好的!

查看全部评分

回复

使用道具 举报

 楼主| 发表于 2017-1-11 10:57:55 | 显示全部楼层
Exact Audio Copy V0.99 prebeta 5 from 4. May 2009

EAC extraction logfile from 8. May 2011, 19:07

Van Halen / Balance [Japanese Edition ]

Used drive  : PIONEER DVD-RW  DVR-118L   Adapter: 0  ID: 1

Read mode               : Secure
Utilize accurate stream : Yes
Defeat audio cache      : Yes
Make use of C2 pointers : No

Read offset correction                      : 6
Overread into Lead-In and Lead-Out          : No
Fill up missing offset samples with silence : Yes
Delete leading and trailing silent blocks   : No
Null samples used in CRC calculations       : Yes
Used interface                              : Native Win32 interface for Win NT & 2000

Used output format : Internal WAV Routines
Sample format      : 44.100 Hz; 16 Bit; Stereo


TOC of the extracted CD

     Track |   Start  |  Length  | Start sector | End sector
    ---------------------------------------------------------
        1  |  0:00.00 |  5:18.57 |         0    |    23906   
        2  |  5:18.57 |  4:07.43 |     23907    |    42474   
        3  |  9:26.25 |  5:56.02 |     42475    |    69176   
        4  | 15:22.27 |  4:45.18 |     69177    |    90569   
        5  | 20:07.45 |  3:57.12 |     90570    |   108356   
        6  | 24:04.57 |  1:28.68 |    108357    |   115024   
        7  | 25:33.50 |  5:12.47 |    115025    |   138471   
        8  | 30:46.22 |  5:28.73 |    138472    |   163144   
        9  | 36:15.20 |  1:41.27 |    163145    |   170746   
       10  | 37:56.47 |  4:04.60 |    170747    |   189106   
       11  | 42:01.32 |  4:42.55 |    189107    |   210311   
       12  | 46:44.12 |  6:37.23 |    210312    |   240109   
       13  | 53:21.35 |  5:04.00 |    240110    |   262909   


Range status and errors

Selected range

     Filename F:\PIPETKA\Van Halen - 1995 - Balance [Japanese Edition ]\Van Halen - Balance [Japanese Edition ].wav

     Peak level 100.0 %
     Range quality 100.0 %
     Test CRC FCBDE243
     Copy CRC FCBDE243
     Copy OK

No errors occurred


AccurateRip summary

Track  1  accurately ripped (confidence 9)  [CD9CF3BB]
Track  2  accurately ripped (confidence 9)  [9ECAB38E]
Track  3  accurately ripped (confidence 9)  [6AE553F6]
Track  4  accurately ripped (confidence 9)  [656F9E14]
Track  5  accurately ripped (confidence 9)  [C1B2D051]
Track  6  accurately ripped (confidence 9)  [B3EF0DFC]
Track  7  accurately ripped (confidence 9)  [6F428270]
Track  8  accurately ripped (confidence 9)  [1D404953]
Track  9  accurately ripped (confidence 9)  [EE834CB1]
Track 10  accurately ripped (confidence 9)  [8F0DBDD6]
Track 11  accurately ripped (confidence 9)  [EDB6AEFD]
Track 12  accurately ripped (confidence 9)  [E2E89F65]
Track 13  accurately ripped (confidence 8)  [CE7271D8]

All tracks accurately ripped

End of status report
回复 支持 反对

使用道具 举报

 楼主| 发表于 2017-1-11 10:58:05 | 显示全部楼层
REM GENRE Pop/Rock*
REM DATE 1995
REM DISCID AF0DB10D
REM COMMENT "ExactAudioCopy v0.99pb5"
PERFORMER "Van Halen"
TITLE "Balance [Japanese Edition ]"
FILE "Van Halen - Balance [Japanese Edition ].flac" WAVE
  TRACK 01 AUDIO
    TITLE "The Seventh Seal"
    PERFORMER "Van Halen"
    INDEX 01 00:00:00
  TRACK 02 AUDIO
    TITLE "Can't Stop Lovin' You"
    PERFORMER "Van Halen"
    INDEX 01 05:18:57
  TRACK 03 AUDIO
    TITLE "Don't Tell Me {What Love Can Do}"
    PERFORMER "Van Halen"
    INDEX 01 09:26:25
  TRACK 04 AUDIO
    TITLE "Amsterdam"
    PERFORMER "Van Halen"
    INDEX 01 15:22:27
  TRACK 05 AUDIO
    TITLE "Big Fat Money"
    PERFORMER "Van Halen"
    INDEX 00 20:06:40
    INDEX 01 20:07:45
  TRACK 06 AUDIO
    TITLE "Strung Out"
    PERFORMER "Van Halen"
    INDEX 01 24:04:57
  TRACK 07 AUDIO
    TITLE "Not Enough"
    PERFORMER "Van Halen"
    INDEX 01 25:33:50
  TRACK 08 AUDIO
    TITLE "Aftershock"
    PERFORMER "Van Halen"
    INDEX 01 30:46:22
  TRACK 09 AUDIO
    TITLE "Doin' Time"
    PERFORMER "Van Halen"
    INDEX 01 36:15:20
  TRACK 10 AUDIO
    TITLE "Baluchitherium"
    PERFORMER "Van Halen"
    INDEX 01 37:56:47
  TRACK 11 AUDIO
    TITLE "Take Me Back {Deja Vu}"
    PERFORMER "Van Halen"
    INDEX 01 42:01:32
  TRACK 12 AUDIO
    TITLE "Feelin'"
    PERFORMER "Van Halen"
    INDEX 00 46:43:00
    INDEX 01 46:44:12
  TRACK 13 AUDIO
    TITLE "Crossing Over"
    PERFORMER "Van Halen"
    INDEX 00 53:18:42
    INDEX 01 53:21:35
回复 支持 反对

使用道具 举报

您需要登录后才可以回帖 登录 | 邀请注册

本版积分规则

Archiver|小黑屋|清风文摘 ( 津ICP备14006513号

GMT+8, 2017-2-28 15:38 , Processed in 0.253161 second(s), 28 queries .

Powered by Discuz! X3.2

© 2001-2013 Comsenz Inc.

快速回复 返回顶部 返回列表