清风文摘

 找回密码
 邀请注册
查看: 27|回复: 2

[专辑] Van Halen -1991- For Unlawful Carnal Knowledge (USA)[FLAC][百度]

[复制链接]
发表于 2017-1-11 10:55:55 | 显示全部楼层 |阅读模式
感谢原创!





Tracklist:

01. Poundcake 05:21
02. Judgement Day 04:38
03. Spanked 04:52
04. Runaround 04:21
05. Pleasure Dome 06:57
06. In 'N' Out 06:04
07. Man On A Mission 05:03
08. The Dream Is Over 03:59
09. Right Now 05:21
10. 316 01:29
11. Top Of The World 03:52




百度链接:


游客,如果您要查看本帖隐藏内容请回复




本帖子中包含更多资源

您需要 登录 才可以下载或查看,没有帐号?邀请注册

x

评分

参与人数 1威望 +5 清风币 +5 魅力 +5 珍珠 +1 收起 理由
翠峰 + 5 + 5 + 5 + 1 感谢你的用心交流,清风因你而精彩!

查看全部评分

回复

使用道具 举报

 楼主| 发表于 2017-1-11 10:56:13 | 显示全部楼层
Exact Audio Copy V1.0 beta 3 from 29. August 2011

EAC extraction logfile from 8. March 2014, 14:57

Van Halen / For Unlawful Carnal Knowledge

Used drive  : SAMSUNG DVD-ROM SD-616E   Adapter: 3  ID: 0

Read mode               : Secure
Utilize accurate stream : Yes
Defeat audio cache      : Yes
Make use of C2 pointers : No

Read offset correction                      : 12
Overread into Lead-In and Lead-Out          : No
Fill up missing offset samples with silence : Yes
Delete leading and trailing silent blocks   : No
Null samples used in CRC calculations       : Yes
Used interface                              : Native Win32 interface for Win NT & 2000

Used output format              : User Defined Encoder
Selected bitrate                : 768 kBit/s
Quality                         : High
Add ID3 tag                     : No
Command line compressor         : C:\Program Files\Exact Audio Copy\FLAC\FLAC.EXE
Additional command line options : -6 -V -T "ARTIST=%artist%" -T "TITLE=%title%" -T "ALBUM=%albumtitle%" -T "DATE=%year%" -T "TRACKNUMBER=%tracknr%" -T "GENRE=%genre%" -T "COMMENT=%comment%" -T "BAND=%albuminterpret%" -T "ALBUMARTIST=%albuminterpret%" -T "COMPOSER=%composer%" %haslyrics%--tag-from-file=LYRICS="%lyricsfile%"%haslyrics% -T "DISCNUMBER=%cdnumber%" -T "TOTALDISCS=%totalcds%" -T "TOTALTRACKS=%numtracks%" %hascover%--picture="%coverfile%"%hascover% %source% -o %dest%


TOC of the extracted CD

     Track |   Start  |  Length  | Start sector | End sector
    ---------------------------------------------------------
        1  |  0:00.33 |  5:21.02 |        33    |    24109   
        2  |  5:21.35 |  4:38.70 |     24110    |    45029   
        3  | 10:00.30 |  4:52.60 |     45030    |    66989   
        4  | 14:53.15 |  4:21.03 |     66990    |    86567   
        5  | 19:14.18 |  6:57.62 |     86568    |   117904   
        6  | 26:12.05 |  6:04.65 |    117905    |   145269   
        7  | 32:16.70 |  5:03.65 |    145270    |   168059   
        8  | 37:20.60 |  3:59.33 |    168060    |   186017   
        9  | 41:20.18 |  5:21.42 |    186018    |   210134   
       10  | 46:41.60 |  1:29.53 |    210135    |   216862   
       11  | 48:11.38 |  3:52.65 |    216863    |   234327   


Range status and errors

Selected range

     Filename C:\Documents and Settings\Borya\Desktop\vaha91\Van Halen - For Unlawful Carnal Knowledge.wav

     Peak level 97.0 %
     Extraction speed 2.3 X
     Range quality 100.0 %
     Test CRC 32AE5507
     Copy CRC 32AE5507
     Copy OK

No errors occurred


AccurateRip summary

Track  1  accurately ripped (confidence 117)  [886E9BD0]  (AR v2)
Track  2  accurately ripped (confidence 116)  [7F4D8E16]  (AR v2)
Track  3  accurately ripped (confidence 116)  [7E33386A]  (AR v2)
Track  4  accurately ripped (confidence 117)  [68557331]  (AR v2)
Track  5  accurately ripped (confidence 115)  [CFBCC9E3]  (AR v2)
Track  6  accurately ripped (confidence 116)  [2ADBA18D]  (AR v2)
Track  7  accurately ripped (confidence 116)  [39355CEC]  (AR v2)
Track  8  accurately ripped (confidence 115)  [2926F6D4]  (AR v2)
Track  9  accurately ripped (confidence 116)  [293364A7]  (AR v2)
Track 10  accurately ripped (confidence 115)  [88CE80C9]  (AR v2)
Track 11  accurately ripped (confidence 116)  [BC8DF0A0]  (AR v2)

All tracks accurately ripped

End of status report

==== Log checksum 1D83FCC76CCDFFC965CD2D493F6AF1B05478ACB8FA01D66284802F3B69E834EF ====
回复 支持 反对

使用道具 举报

 楼主| 发表于 2017-1-11 10:56:26 | 显示全部楼层
REM GENRE "Hard Rock"
REM DATE 1991
REM DISCID 980C340B
REM COMMENT "ExactAudioCopy v1.0b3"
PERFORMER "Van Halen"
TITLE "For Unlawful Carnal Knowledge"
FILE "Van Halen - For Unlawful Carnal Knowledge.flac" WAVE
  TRACK 01 AUDIO
    TITLE "Poundcake"
    PERFORMER "Van Halen"
    INDEX 00 00:00:00
    INDEX 01 00:00:33
  TRACK 02 AUDIO
    TITLE "Judgement Day"
    PERFORMER "Van Halen"
    INDEX 00 05:19:65
    INDEX 01 05:21:35
  TRACK 03 AUDIO
    TITLE "Spanked"
    PERFORMER "Van Halen"
    INDEX 00 09:59:10
    INDEX 01 10:00:30
  TRACK 04 AUDIO
    TITLE "Runaround"
    PERFORMER "Van Halen"
    INDEX 00 14:50:58
    INDEX 01 14:53:15
  TRACK 05 AUDIO
    TITLE "Pleasure Dome"
    PERFORMER "Van Halen"
    INDEX 00 19:11:25
    INDEX 01 19:14:18
  TRACK 06 AUDIO
    TITLE "In ?N? Out"
    PERFORMER "Van Halen"
    INDEX 00 26:10:20
    INDEX 01 26:12:05
  TRACK 07 AUDIO
    TITLE "Man On A Mission"
    PERFORMER "Van Halen"
    INDEX 00 32:16:11
    INDEX 01 32:16:70
  TRACK 08 AUDIO
    TITLE "The Dream Is Over"
    PERFORMER "Van Halen"
    INDEX 00 37:19:13
    INDEX 01 37:20:60
  TRACK 09 AUDIO
    TITLE "Right Now"
    PERFORMER "Van Halen"
    INDEX 00 41:17:18
    INDEX 01 41:20:18
  TRACK 10 AUDIO
    TITLE "316"
    PERFORMER "Van Halen"
    INDEX 00 46:41:08
    INDEX 01 46:41:60
  TRACK 11 AUDIO
    TITLE "Top Of The World"
    PERFORMER "Van Halen"
    INDEX 00 48:10:48
    INDEX 01 48:11:38
回复 支持 反对

使用道具 举报

您需要登录后才可以回帖 登录 | 邀请注册

本版积分规则

Archiver|小黑屋|清风文摘 ( 津ICP备14006513号

GMT+8, 2017-1-19 04:09 , Processed in 0.236744 second(s), 25 queries .

Powered by Discuz! X3.2

© 2001-2013 Comsenz Inc.

快速回复 返回顶部 返回列表