清风文摘

 找回密码
 邀请注册
查看: 26|回复: 2

[专辑] supercell -2013- ZIGAEXPERIENTIA [FLAC][百度]

[复制链接]
发表于 6 天前 | 显示全部楼层 |阅读模式
感谢原创!





Треклист:
01. Journey's End
02. No.525300887039
03. Mr.Downer
04. My Dearest (Album Mix)
05. Jūzoku Ningen (従属人間 Dependent Human)
06. White Seiyaku (ホワイト製薬 White Drug)
07. Hakushukassai Utaawase (拍手喝采歌合 Applause Singing Contest)
08. Yeah Oh Ahhh Oh!
09. Hyakukaime no Kiss (百回目のキス 100th Kiss)
10. Gin'iro Hikōsen (銀色飛行船 Silver Blimp)
11. The Bravery (Album Mix)
12. Bokura no Ashiato (Album Mix) (僕らのあしあと Our Footprints)
13. Kokuhaku (Album Mix) (告白 Confession)
14. Jikan Ressha (時間列車 Time Train)
15. We're Still Here




百度链接:


游客,如果您要查看本帖隐藏内容请回复




本帖子中包含更多资源

您需要 登录 才可以下载或查看,没有帐号?邀请注册

x

评分

参与人数 1威望 +5 清风币 +5 魅力 +5 珍珠 +1 收起 理由
翠峰 + 5 + 5 + 5 + 1 再接再厉,你是最好的!

查看全部评分

回复

使用道具 举报

 楼主| 发表于 6 天前 | 显示全部楼层
Exact Audio Copy V1.0 beta 3 from 29. August 2011

EAC 抓取日志文件从18. 五月 2014, 22:35

SUPERCELL / Zigaexperientia

使用驱动器  :HL-DT-STDVDRAM GT50N   Adapter: 0  ID: 0

读取模式      : 可靠Secure
使用精确流     : 是
清空音频缓存    : 否
使用 C2 指示器 : 否

读取偏移校正:               : 103
读取 Lead-In 和 Lead-Out : 否
用静音填充抓取中丢失偏移的采样       : 是
去除首尾静音块               : 否
在CRC 计算中使用了空样本       : 是
已用接口                  : Win NT 及 2000 本地 Win32 接口

所用输出模式: : 内部 WAV 函数
样本格式    : 44.100 Hz; 16 Bit; 立体声


已抓取 CD 的 TOC

     音轨 |    起始    |    长度    |  起始扇区  |  结束扇区  
    --------------------------------------------
      1 |  0:00.00 |  1:49.20 |      0 |   8194
      2 |  1:49.20 |  5:56.64 |   8195 |  34958
      3 |  7:46.09 |  4:11.19 |  34959 |  53802
      4 | 11:57.28 |  5:36.47 |  53803 |  79049
      5 | 17:34.00 |  3:34.54 |  79050 |  95153
      6 | 21:08.54 |  3:20.07 |  95154 | 110160
      7 | 24:28.61 |  3:58.25 | 110161 | 128035
      8 | 28:27.11 |  3:41.40 | 128036 | 144650
      9 | 32:08.51 |  4:46.00 | 144651 | 166100
     10 | 36:54.51 |  7:03.59 | 166101 | 197884
     11 | 43:58.35 |  6:04.46 | 197885 | 225230
     12 | 50:03.06 |  7:07.46 | 225231 | 257301
     13 | 57:10.52 |  5:26.00 | 257302 | 281751
     14 | 62:36.52 |  3:56.66 | 281752 | 299517
     15 | 66:33.43 |  5:11.72 | 299518 | 322914


范围状态及错误

已选择范围

     文件名 D:\EAC 自抓CD\[EAC]SUPERCELL - Zigaexperientia\CDImage.wav

     峰值电平 100.0 %
     抓取速度 6.5 X
     范围质量 100.0 %
     复制 CRC B8E25957
     复制成功

没有错误发生

状态报告结尾

---- CUETools DB Plugin V2.1.3

[CTDB TOCID: 0ydMtGmWKELyP.QeMCDVrN17ES8-] found, Submit result: 0ydMtGmWKELyP.QeMCDVrN17ES8- has been confirmed
[26d71dfe] (92/94) Accurately ripped
[4ce6646c] (01/94) No match
[428489dd] (01/94) No match
回复 支持 反对

使用道具 举报

 楼主| 发表于 6 天前 | 显示全部楼层
REM DATE 2013
REM DISCID C410D10F
REM COMMENT "ExactAudioCopy v1.0b3"
PERFORMER "supercell"
TITLE "ZIGAEXPERIENTIA"
FILE "supercell - ZIGAEXPERIENTIA.wav" WAVE
  TRACK 01 AUDIO
    TITLE "Journey’s End"
    PERFORMER "supercell"
    ISRC JPSR01301357
    INDEX 01 00:00:00
  TRACK 02 AUDIO
    TITLE "No.525300887039"
    PERFORMER "supercell"
    ISRC JPSR01301346
    INDEX 01 01:49:20
  TRACK 03 AUDIO
    TITLE "Mr.Downer"
    PERFORMER "supercell"
    ISRC JPSR01301358
    INDEX 01 07:46:09
  TRACK 04 AUDIO
    TITLE "My Dearest (Album Mix)"
    PERFORMER "supercell"
    ISRC JPSR01301358
    INDEX 01 11:57:28
  TRACK 05 AUDIO
    TITLE "従属人間"
    PERFORMER "supercell"
    ISRC JPSR01301360
    INDEX 01 17:34:00
  TRACK 06 AUDIO
    TITLE "ホワイト製薬"
    PERFORMER "supercell"
    ISRC JPSR01301360
    INDEX 01 21:08:54
  TRACK 07 AUDIO
    TITLE "拍手喝采歌合"
    PERFORMER "supercell"
    ISRC JPSR01300335
    INDEX 01 24:28:61
  TRACK 08 AUDIO
    TITLE "Yeah Oh Ahhh Oh !"
    PERFORMER "supercell"
    ISRC JPSR01300261
    INDEX 00 28:25:01
    INDEX 01 28:27:11
  TRACK 09 AUDIO
    TITLE "百回目のキス"
    PERFORMER "supercell"
    ISRC JPSR01301362
    INDEX 01 32:08:51
  TRACK 10 AUDIO
    TITLE "銀色飛行船"
    PERFORMER "supercell"
    ISRC JPSR01203941
    INDEX 00 36:53:41
    INDEX 01 36:54:51
  TRACK 11 AUDIO
    TITLE "The Bravery (Album Mix)"
    PERFORMER "supercell"
    ISRC JPSR01301363
    INDEX 01 43:58:35
  TRACK 12 AUDIO
    TITLE "僕らのあしあと (Album Mix)"
    PERFORMER "supercell"
    ISRC JPSR01301363
    INDEX 01 50:03:06
  TRACK 13 AUDIO
    TITLE "告白 (Album Mix)"
    PERFORMER "supercell"
    ISRC JPSR01301365
    INDEX 00 57:07:66
    INDEX 01 57:10:52
  TRACK 14 AUDIO
    TITLE "時間列車"
    PERFORMER "supercell"
    ISRC JPSR01301366
    INDEX 00 62:35:37
    INDEX 01 62:36:52
  TRACK 15 AUDIO
    TITLE "We’re Still Here"
    PERFORMER "supercell"
    ISRC JPSR01301367
    INDEX 00 66:31:71
    INDEX 01 66:33:43
回复 支持 反对

使用道具 举报

您需要登录后才可以回帖 登录 | 邀请注册

本版积分规则

Archiver|小黑屋|清风文摘 ( 津ICP备14006513号

GMT+8, 2017-1-17 18:55 , Processed in 0.280382 second(s), 26 queries .

Powered by Discuz! X3.2

© 2001-2013 Comsenz Inc.

快速回复 返回顶部 返回列表