清风文摘

 找回密码
 邀请注册
查看: 78|回复: 2

[专辑] RAH Band -1985- Mystery [FLAC][百度]

[复制链接]
发表于 2017-1-11 10:51:09 | 显示全部楼层 |阅读模式

感谢原创!





Треклист:
1 Clouds Across The Moon
2 Night Wind
3 Sorry Doesn't Make It Anymore
4 Float
5 Mystery Boy
6 Are You Satisfied (Funka Nova)
7 The Shadow Of Your Love
8 Out On The Edge




百度链接:


游客,如果您要查看本帖隐藏内容请回复




本帖子中包含更多资源

您需要 登录 才可以下载或查看,没有帐号?邀请注册

x

评分

参与人数 1威望 +5 清风币 +5 魅力 +5 珍珠 +1 收起 理由
翠峰 + 5 + 5 + 5 + 1 好资源,赞一个!

查看全部评分

回复

使用道具 举报

 楼主| 发表于 2017-1-11 10:51:28 | 显示全部楼层
Exact Audio Copy V1.0 beta 3 from 29. August 2011

EAC extraction logfile from 29. May 2015, 7:29

RAH Band / Mystery

Used drive  : PLEXTOR CD-R   PX-W2410A   Adapter: 3  ID: 0

Read mode               : Secure
Utilize accurate stream : Yes
Defeat audio cache      : Yes
Make use of C2 pointers : No

Read offset correction                      : 98
Overread into Lead-In and Lead-Out          : Yes
Fill up missing offset samples with silence : Yes
Delete leading and trailing silent blocks   : No
Null samples used in CRC calculations       : Yes
Used interface                              : Native Win32 interface for Win NT & 2000
Gap handling                                : Appended to previous track

Used output format : Internal WAV Routines
Sample format      : 44.100 Hz; 16 Bit; Stereo


TOC of the extracted CD

     Track |   Start  |  Length  | Start sector | End sector
    ---------------------------------------------------------
        1  |  0:00.33 |  6:45.30 |        33    |    30437   
        2  |  6:45.63 |  7:36.32 |     30438    |    64669   
        3  | 14:22.20 |  4:18.08 |     64670    |    84027   
        4  | 18:40.28 |  5:33.42 |     84028    |   109044   
        5  | 24:13.70 |  7:08.43 |    109045    |   141187   
        6  | 31:22.38 |  5:57.12 |    141188    |   167974   
        7  | 37:19.50 |  6:20.73 |    167975    |   196547   
        8  | 43:40.48 |  5:18.05 |    196548    |   220402   


Track  1

     Filename T:\RIP\RAH-M\01 Clouds Across The Moon.wav

     Pre-gap length  0:00:02.33

     Peak level 92.5 %
     Extraction speed 8.2 X
     Track quality 99.9 %
     Test CRC 2F18D85F
     Copy CRC 2F18D85F
     Accurately ripped (confidence 6)  [3607DC8A]  (AR v2)
     Copy OK

Track  2

     Filename T:\RIP\RAH-M\02 Night Wind.wav

     Peak level 87.8 %
     Extraction speed 10.4 X
     Track quality 100.0 %
     Test CRC F7A1A528
     Copy CRC F7A1A528
     Accurately ripped (confidence 6)  [CD566637]  (AR v2)
     Copy OK

Track  3

     Filename T:\RIP\RAH-M\03 Sorry Doesn't Make It Anymore.wav

     Peak level 87.7 %
     Extraction speed 11.2 X
     Track quality 100.0 %
     Test CRC DF4DA53F
     Copy CRC DF4DA53F
     Accurately ripped (confidence 6)  [34F224FB]  (AR v2)
     Copy OK

Track  4

     Filename T:\RIP\RAH-M\04 Float.wav

     Peak level 85.2 %
     Extraction speed 12.0 X
     Track quality 100.0 %
     Test CRC EA9C18DC
     Copy CRC EA9C18DC
     Accurately ripped (confidence 6)  [D4CF6F10]  (AR v2)
     Copy OK

Track  5

     Filename T:\RIP\RAH-M\05 Mystery Boy.wav

     Pre-gap length  0:00:00.50

     Peak level 89.5 %
     Extraction speed 11.9 X
     Track quality 99.9 %
     Test CRC 76E913DC
     Copy CRC 76E913DC
     Accurately ripped (confidence 6)  [007A3B63]  (AR v2)
     Copy OK

Track  6

     Filename T:\RIP\RAH-M\06 Are You Satisfied (Funka Nova).wav

     Peak level 100.0 %
     Extraction speed 14.0 X
     Track quality 100.0 %
     Test CRC BCA9B34E
     Copy CRC BCA9B34E
     Accurately ripped (confidence 5)  [45DB80DC]  (AR v2)
     Copy OK

Track  7

     Filename T:\RIP\RAH-M\07 The Shadow Of Your Love.wav

     Peak level 97.2 %
     Extraction speed 14.9 X
     Track quality 100.0 %
     Test CRC DC5A9F64
     Copy CRC DC5A9F64
     Accurately ripped (confidence 6)  [366474A4]  (AR v2)
     Copy OK

Track  8

     Filename T:\RIP\RAH-M\08 Out On The Edge.wav

     Peak level 85.2 %
     Extraction speed 14.2 X
     Track quality 99.9 %
     Test CRC 9AD4B957
     Copy CRC 9AD4B957
     Accurately ripped (confidence 6)  [6D140C27]  (AR v2)
     Copy OK


All tracks accurately ripped

No errors occurred

End of status report

==== Log checksum 505F46662A027067BEB2606D503C3A81AC15A7B282F7A99A53681484487784AB ====
回复 支持 反对

使用道具 举报

 楼主| 发表于 2017-1-11 10:51:47 | 显示全部楼层
REM GENRE Pop
REM DATE 1985
REM COMMENT BMG/RCA ND 74425
PERFORMER "RAH Band"
TITLE "Mystery"
FILE "RAH Band - Mystery.flac" WAVE
  TRACK 01 AUDIO
    TITLE "Clouds Across The Moon"
    INDEX 01 00:00:00
  TRACK 02 AUDIO
    TITLE "Night Wind"
    INDEX 01 06:45:30
  TRACK 03 AUDIO
    TITLE "Sorry Doesn't Make It Anymore"
    INDEX 01 14:21:62
  TRACK 04 AUDIO
    TITLE "Float"
    INDEX 01 18:39:70
  TRACK 05 AUDIO
    TITLE "Mystery Boy"
    INDEX 01 24:13:37
  TRACK 06 AUDIO
    TITLE "Are You Satisfied (Funka Nova)"
    INDEX 01 31:22:05
  TRACK 07 AUDIO
    TITLE "The Shadow Of Your Love"
    INDEX 01 37:19:17
  TRACK 08 AUDIO
    TITLE "Out On The Edge"
    INDEX 01 43:40:15
回复 支持 反对

使用道具 举报

您需要登录后才可以回帖 登录 | 邀请注册

本版积分规则

Archiver|小黑屋|清风文摘 ( 津ICP备14006513号

GMT+8, 2017-8-22 01:51 , Processed in 0.303700 second(s), 25 queries .

Powered by Discuz! X3.2

© 2001-2013 Comsenz Inc.

快速回复 返回顶部 返回列表