清风文摘

 找回密码
 邀请注册
查看: 25|回复: 2

[专辑] Mónica Naranjo -2016- Lvbna (Spain) [CD][FLAC][百度]

[复制链接]
发表于 7 天前 | 显示全部楼层 |阅读模式
感谢原创!





曲目列表:
01. Lasciatemi Qui
02. Apocalítica
03. Ya Está Bien
04. Perdida
05. Essere Uno
06. Fin
07. Eleo è Nato
08. Ese Es Mi Público
09. Boomerang
10. Holocausto
11. L'Ombra
12. Romance Con La Locura
13. Contemplazione
14. Balada Desesperada
15. Jamás
16. Mortem Eleonard
17. Lubna Y Eleonard




百度链接:


游客,如果您要查看本帖隐藏内容请回复




本帖子中包含更多资源

您需要 登录 才可以下载或查看,没有帐号?邀请注册

x

评分

参与人数 1威望 +5 清风币 +5 魅力 +5 珍珠 +1 收起 理由
翠峰 + 5 + 5 + 5 + 1 好资源,赞一个!

查看全部评分

回复

使用道具 举报

 楼主| 发表于 7 天前 | 显示全部楼层
Exact Audio Copy V1.0 beta 3 from 29. August 2011

EAC extraction logfile from 4. February 2016, 19:50

Monica Naranjo / Lubna

Used drive  : HL-DT-STDVDRAM GH22LS50   Adapter: 1  ID: 0

Read mode               : Secure
Utilize accurate stream : Yes
Defeat audio cache      : Yes
Make use of C2 pointers : No

Read offset correction                      : 667
Overread into Lead-In and Lead-Out          : No
Fill up missing offset samples with silence : Yes
Delete leading and trailing silent blocks   : No
Null samples used in CRC calculations       : Yes
Used interface                              : Native Win32 interface for Win NT & 2000
Gap handling                                : Appended to previous track

Used output format              : User Defined Encoder
Selected bitrate                : 1024 kBit/s
Quality                         : High
Add ID3 tag                     : No
Command line compressor         : C:\Program Files (x86)\Exact Audio Copy\Flac\flac.exe
Additional command line options : -8 -V -T "ARTIST=%artist%" -T "TITLE=%title%" -T "ALBUM=%albumtitle%" -T "DATE=%year%" -T "TRACKNUMBER=%tracknr%" -T "TOTALTRACKS=%numtracks%" -T "GENRE=%genre%" -T "ALBUMARTIST=%albumartist%" -T "ALBUM ARTIST=%albumartist%" -T "COMMENT=EAC Secure Mode, Test & Copy, AccurateRip, FLAC -8" %source%


TOC of the extracted CD

     Track |   Start  |  Length  | Start sector | End sector
    ---------------------------------------------------------
        1  |  0:00.00 |  3:38.64 |         0    |    16413   
        2  |  3:38.64 |  2:55.39 |     16414    |    29577   
        3  |  6:34.28 |  6:52.27 |     29578    |    60504   
        4  | 13:26.55 |  4:58.62 |     60505    |    82916   
        5  | 18:25.42 |  1:19.56 |     82917    |    88897   
        6  | 19:45.23 |  4:21.44 |     88898    |   108516   
        7  | 24:06.67 |  1:39.50 |    108517    |   115991   
        8  | 25:46.42 |  4:54.07 |    115992    |   138048   
        9  | 30:40.49 |  3:56.18 |    138049    |   155766   
       10  | 34:36.67 |  6:32.17 |    155767    |   185183   
       11  | 41:09.09 |  2:01.00 |    185184    |   194258   
       12  | 43:10.09 |  4:47.19 |    194259    |   215802   
       13  | 47:57.28 |  2:39.39 |    215803    |   227766   
       14  | 50:36.67 |  3:54.39 |    227767    |   245355   
       15  | 54:31.31 |  5:28.18 |    245356    |   269973   
       16  | 59:59.49 |  2:48.01 |    269974    |   282574   
       17  | 62:47.50 |  4:33.40 |    282575    |   303089   


Track  1

     Filename N:\Monica Naranjo - Lubna (2016) [FLAC]\01 - Lasciatemi qui.wav

     Pre-gap length  0:00:02.00

     Peak level 100.0 %
     Extraction speed 4.4 X
     Track quality 100.0 %
     Test CRC 8C27808C
     Copy CRC 8C27808C
     Track not present in AccurateRip database
     Copy OK

Track  2

     Filename N:\Monica Naranjo - Lubna (2016) [FLAC]\02 - Apocaliptica.wav

     Peak level 100.0 %
     Extraction speed 4.4 X
     Track quality 100.0 %
     Test CRC EA7CD1F7
     Copy CRC EA7CD1F7
     Track not present in AccurateRip database
     Copy OK

Track  3

     Filename N:\Monica Naranjo - Lubna (2016) [FLAC]\03 - Ya esta bien.wav

     Peak level 100.0 %
     Extraction speed 5.5 X
     Track quality 100.0 %
     Test CRC C010AFF5
     Copy CRC C010AFF5
     Track not present in AccurateRip database
     Copy OK

Track  4

     Filename N:\Monica Naranjo - Lubna (2016) [FLAC]\04 - Perdida.wav

     Peak level 100.0 %
     Extraction speed 6.0 X
     Track quality 100.0 %
     Test CRC 4376506A
     Copy CRC 4376506A
     Track not present in AccurateRip database
     Copy OK

Track  5

     Filename N:\Monica Naranjo - Lubna (2016) [FLAC]\05 - Essere uno.wav

     Peak level 99.8 %
     Extraction speed 4.6 X
     Track quality 100.0 %
     Test CRC 4B3E5983
     Copy CRC 4B3E5983
     Track not present in AccurateRip database
     Copy OK

Track  6

     Filename N:\Monica Naranjo - Lubna (2016) [FLAC]\06 - Fin.wav

     Peak level 100.0 %
     Extraction speed 5.4 X
     Track quality 99.9 %
     Test CRC 0A6CA184
     Copy CRC 0A6CA184
     Track not present in AccurateRip database
     Copy OK

Track  7

     Filename N:\Monica Naranjo - Lubna (2016) [FLAC]\07 - Eleo e nato.wav

     Peak level 76.1 %
     Extraction speed 5.3 X
     Track quality 100.0 %
     Test CRC A955F71D
     Copy CRC A955F71D
     Track not present in AccurateRip database
     Copy OK

Track  8

     Filename N:\Monica Naranjo - Lubna (2016) [FLAC]\08 - Ese es mi publico.wav

     Peak level 100.0 %
     Extraction speed 6.5 X
     Track quality 100.0 %
     Test CRC A81CAEFB
     Copy CRC A81CAEFB
     Track not present in AccurateRip database
     Copy OK

Track  9

     Filename N:\Monica Naranjo - Lubna (2016) [FLAC]\09 - Boomerang.wav

     Peak level 100.0 %
     Extraction speed 6.5 X
     Track quality 100.0 %
     Test CRC 01DF64C5
     Copy CRC 01DF64C5
     Track not present in AccurateRip database
     Copy OK

Track 10

     Filename N:\Monica Naranjo - Lubna (2016) [FLAC]\10 - Holocausto.wav

     Peak level 100.0 %
     Extraction speed 7.5 X
     Track quality 100.0 %
     Test CRC CE3ACFD2
     Copy CRC CE3ACFD2
     Track not present in AccurateRip database
     Copy OK

Track 11

     Filename N:\Monica Naranjo - Lubna (2016) [FLAC]\11 - L'ombra.wav

     Peak level 100.0 %
     Extraction speed 6.4 X
     Track quality 100.0 %
     Test CRC 5CE50827
     Copy CRC 5CE50827
     Track not present in AccurateRip database
     Copy OK

Track 12

     Filename N:\Monica Naranjo - Lubna (2016) [FLAC]\12 - Romance con la locura.wav

     Peak level 100.0 %
     Extraction speed 7.7 X
     Track quality 100.0 %
     Test CRC 31F6C73A
     Copy CRC 31F6C73A
     Track not present in AccurateRip database
     Copy OK

Track 13

     Filename N:\Monica Naranjo - Lubna (2016) [FLAC]\13 - Contemplazione.wav

     Peak level 100.0 %
     Extraction speed 7.2 X
     Track quality 100.0 %
     Test CRC 94B2204C
     Copy CRC 94B2204C
     Track not present in AccurateRip database
     Copy OK

Track 14

     Filename N:\Monica Naranjo - Lubna (2016) [FLAC]\14 - Balada Desesperada.wav

     Peak level 100.0 %
     Extraction speed 7.8 X
     Track quality 100.0 %
     Test CRC ABB92E68
     Copy CRC ABB92E68
     Track not present in AccurateRip database
     Copy OK

Track 15

     Filename N:\Monica Naranjo - Lubna (2016) [FLAC]\15 - Jamas.wav

     Peak level 100.0 %
     Extraction speed 8.1 X
     Track quality 100.0 %
     Test CRC C37E0CEE
     Copy CRC C37E0CEE
     Track not present in AccurateRip database
     Copy OK

Track 16

     Filename N:\Monica Naranjo - Lubna (2016) [FLAC]\16 - Mortem Eleonard.wav

     Peak level 100.0 %
     Extraction speed 7.6 X
     Track quality 100.0 %
     Test CRC 983BFA8C
     Copy CRC 983BFA8C
     Track not present in AccurateRip database
     Copy OK

Track 17

     Filename N:\Monica Naranjo - Lubna (2016) [FLAC]\17 - Lubna y Eleonard.wav

     Peak level 99.0 %
     Extraction speed 8.5 X
     Track quality 100.0 %
     Test CRC 5C54AB23
     Copy CRC 5C54AB23
     Track not present in AccurateRip database
     Copy OK


None of the tracks are present in the AccurateRip database

No errors occurred

End of status report

==== Log checksum 5DBAD0263E6E44BBB746B7DB9FA7ECB0C46F3EF10FCA004FC59A66315F0BD607 ====
回复 支持 反对

使用道具 举报

 楼主| 发表于 7 天前 | 显示全部楼层
REM GENRE Electro Rock / Opera Rock
REM DATE 2016
REM COMMENT Sony Music ?– 88875180812, Alaia Productions ?– 88875180812
PERFORMER "Monica Naranjo, Mónica Naranjo"
TITLE "Lubna"
FILE "Monica Naranjo, Mónica Naranjo - Lubna.flac" WAVE
  TRACK 01 AUDIO
    TITLE "Lasciatemi Qui"
    PERFORMER "Mónica Naranjo"
    INDEX 01 00:00:00
  TRACK 02 AUDIO
    TITLE "Apocalítica"
    PERFORMER "Mónica Naranjo"
    INDEX 01 03:38:64
  TRACK 03 AUDIO
    TITLE "Ya Está Bien"
    PERFORMER "Mónica Naranjo"
    INDEX 01 06:34:28
  TRACK 04 AUDIO
    TITLE "Perdida"
    PERFORMER "Mónica Naranjo"
    INDEX 01 13:26:55
  TRACK 05 AUDIO
    TITLE "Essere Uno"
    PERFORMER "Mónica Naranjo"
    INDEX 01 18:25:42
  TRACK 06 AUDIO
    TITLE "Fin"
    PERFORMER "Mónica Naranjo"
    INDEX 01 19:45:23
  TRACK 07 AUDIO
    TITLE "Eleo è Nato"
    PERFORMER "Mónica Naranjo"
    INDEX 01 24:06:67
  TRACK 08 AUDIO
    TITLE "Ese Es Mi Público"
    PERFORMER "Mónica Naranjo"
    INDEX 01 25:46:42
  TRACK 09 AUDIO
    TITLE "Boomerang"
    PERFORMER "Mónica Naranjo"
    INDEX 01 30:40:49
  TRACK 10 AUDIO
    TITLE "Holocausto"
    PERFORMER "Mónica Naranjo"
    INDEX 01 34:36:67
  TRACK 11 AUDIO
    TITLE "L'Ombra"
    PERFORMER "Mónica Naranjo"
    INDEX 01 41:09:09
  TRACK 12 AUDIO
    TITLE "Romance Con La Locura"
    PERFORMER "Mónica Naranjo"
    INDEX 01 43:10:09
  TRACK 13 AUDIO
    TITLE "Contemplazione"
    PERFORMER "Mónica Naranjo"
    INDEX 01 47:57:28
  TRACK 14 AUDIO
    TITLE "Balada Desesperada"
    PERFORMER "Mónica Naranjo"
    INDEX 01 50:36:67
  TRACK 15 AUDIO
    TITLE "Jamás"
    PERFORMER "Mónica Naranjo"
    INDEX 01 54:31:31
  TRACK 16 AUDIO
    TITLE "Mortem Eleonard"
    PERFORMER "Mónica Naranjo"
    INDEX 01 59:59:49
  TRACK 17 AUDIO
    TITLE "Lubna Y Eleonard"
    PERFORMER "Mónica Naranjo"
    INDEX 01 62:47:50
回复 支持 反对

使用道具 举报

您需要登录后才可以回帖 登录 | 邀请注册

本版积分规则

Archiver|小黑屋|清风文摘 ( 津ICP备14006513号

GMT+8, 2017-1-18 18:04 , Processed in 0.255483 second(s), 21 queries .

Powered by Discuz! X3.2

© 2001-2013 Comsenz Inc.

快速回复 返回顶部 返回列表