清风文摘

 找回密码
 邀请注册
查看: 88|回复: 3

[专辑] Emi Fujita -2007- Camomile Best Audio [FLAC][百度]

[复制链接]
发表于 2017-1-11 10:47:04 | 显示全部楼层 |阅读模式
感谢原创!





01. And I Love You So 05:00
02. Best of My Love 04:42
03. First of May 03:40
04. All My Loving 03:19
05. Unchained Melody 04:27
06. Desperado 03:32
07. Angel Voices Calling 04:19
08. Fields of Gold 05:04
09. Proud of You 03:50
10. Longer 03:28
11. Today 04:25
12. Walking in the Air 05:04
13. Beneath a Rowan Tree 04:50
14. Over the Raibow 03:45
15. Wide Awake 03:56
16. Tears in Heaven 04:53
17. What a Wonderfuk World 04:10




百度链接:


游客,如果您要查看本帖隐藏内容请回复




本帖子中包含更多资源

您需要 登录 才可以下载或查看,没有帐号?邀请注册

x

评分

参与人数 1威望 +5 清风币 +5 魅力 +5 珍珠 +1 收起 理由
翠峰 + 5 + 5 + 5 + 1 好资源,赞一个!

查看全部评分

回复

使用道具 举报

 楼主| 发表于 2017-1-11 10:47:18 | 显示全部楼层
Exact Audio Copy V0.99 prebeta 3 from 28. July 2007

EAC extraction logfile from 15. January 2009, 11:39

Emi Fujita / Camomile Best Audio

Used drive  : TSSTcorpCDDVDW SE-S204N   Adapter: 6  ID: 4

Read mode               : Secure
Utilize accurate stream : Yes
Defeat audio cache      : Yes
Make use of C2 pointers : No

Read offset correction                      : 6
Overread into Lead-In and Lead-Out          : No
Fill up missing offset samples with silence : Yes
Delete leading and trailing silent blocks   : No
Null samples used in CRC calculations       : No
Used interface                              : Installed external ASPI interface

Used output format              : User Defined Encoder
Selected bitrate                : 768 kBit/s
Quality                         : High
Add ID3 tag                     : No
Command line compressor         : H:\Program Files\Exact Audio Copy\FLAC\FLAC.EXE
Additional command line options : -6 -V -T "ARTIST=%a" -T "TITLE=%t" -T "ALBUM=%g" -T "DATE=%y" -T "TRACKNUMBER=%n" -T "GENRE=%m" -T "COMMENT=%e" %s -o %d


TOC of the extracted CD

     Track |   Start  |  Length  | Start sector | End sector
    ---------------------------------------------------------
        1  |  0:00.00 |  5:00.17 |         0    |    22516   
        2  |  5:00.17 |  4:42.68 |     22517    |    43734   
        3  |  9:43.10 |  3:40.20 |     43735    |    60254   
        4  | 13:23.30 |  3:19.42 |     60255    |    75221   
        5  | 16:42.72 |  4:27.24 |     75222    |    95270   
        6  | 21:10.21 |  3:32.63 |     95271    |   111233   
        7  | 24:43.09 |  4:19.67 |    111234    |   130725   
        8  | 29:03.01 |  5:04.19 |    130726    |   153544   
        9  | 34:07.20 |  3:50.35 |    153545    |   170829   
       10  | 37:57.55 |  3:28.01 |    170830    |   186430   
       11  | 41:25.56 |  4:25.17 |    186431    |   206322   
       12  | 45:50.73 |  5:04.66 |    206323    |   229188   
       13  | 50:55.64 |  4:50.33 |    229189    |   250971   
       14  | 55:46.22 |  3:45.03 |    250972    |   267849   
       15  | 59:31.25 |  3:56.28 |    267850    |   285577   
       16  | 63:27.53 |  4:53.68 |    285578    |   307620   
       17  | 68:21.46 |  4:10.26 |    307621    |   326396   


Range status and errors

Selected range

     Filename C:\TTT\Emi Fujita - Camomile Best Audio\Emi Fujita - Camomile Best Audio.wav

     Peak level 99.8 %
     Range quality 100.0 %
     Test CRC BB0FF2D4
     Copy CRC BB0FF2D4
     Copy OK

No errors occurred


AccurateRip summary

Track  1  accurately ripped (confidence 3)  [9D9871B6]
Track  2  accurately ripped (confidence 3)  [770FD5D2]
Track  3  accurately ripped (confidence 2)  [BB3147BB]
Track  4  accurately ripped (confidence 2)  [525825CE]
Track  5  accurately ripped (confidence 2)  [D9BBC46E]
Track  6  accurately ripped (confidence 2)  [2248A705]
Track  7  accurately ripped (confidence 2)  [A6E3B3DF]
Track  8  accurately ripped (confidence 2)  [E2FA9C19]
Track  9  accurately ripped (confidence 2)  [848F404B]
Track 10  accurately ripped (confidence 2)  [3DEB43A8]
Track 11  accurately ripped (confidence 2)  [E5099349]
Track 12  accurately ripped (confidence 2)  [A40FD3FD]
Track 13  accurately ripped (confidence 2)  [320A06BE]
Track 14  accurately ripped (confidence 2)  [99FFD8F5]
Track 15  accurately ripped (confidence 2)  [BBFEDC1A]
Track 16  accurately ripped (confidence 2)  [BE8B31C2]
Track 17  accurately ripped (confidence 2)  [2F3362C6]

All tracks accurately ripped

End of status report
回复 支持 反对

使用道具 举报

 楼主| 发表于 2017-1-11 10:47:34 | 显示全部楼层
REM GENRE Classical
REM DATE 2007
REM DISCID F110FF11
REM COMMENT "ExactAudioCopy v0.99pb3"
CATALOG 4988013402041
PERFORMER "Emi Fujita"
TITLE "Camomile Best Audio"
FILE "Emi Fujita - Camomile Best Audio.flac" WAVE
  TRACK 01 AUDIO
    TITLE "And I Love You So"
    PERFORMER "Emi Fujita"
    ISRC JPP=00702029
    INDEX 01 00:00:00
  TRACK 02 AUDIO
    TITLE "Best of My Love"
    PERFORMER "Emi Fujita"
    ISRC JPP=00702031
    INDEX 00 04:58:36
    INDEX 01 05:00:17
  TRACK 03 AUDIO
    TITLE "First of May"
    PERFORMER "Emi Fujita"
    ISRC JPP=00702022
    INDEX 01 09:43:10
  TRACK 04 AUDIO
    TITLE "All My Loving"
    PERFORMER "Emi Fujita"
    ISRC JPP=00702032
    INDEX 00 13:21:03
    INDEX 01 13:23:30
  TRACK 05 AUDIO
    TITLE "Unchained Melody"
    PERFORMER "Emi Fujita"
    ISRC JPP=00702033
    INDEX 00 16:39:57
    INDEX 01 16:42:72
  TRACK 06 AUDIO
    TITLE "Desperado"
    PERFORMER "Emi Fujita"
    ISRC JPP=00702019
    INDEX 00 21:06:73
    INDEX 01 21:10:21
  TRACK 07 AUDIO
    TITLE "Angel Voices Calling"
    PERFORMER "Emi Fujita"
    ISRC JPP=00702027
    INDEX 00 24:42:04
    INDEX 01 24:43:09
  TRACK 08 AUDIO
    TITLE "Fields of Gold"
    PERFORMER "Emi Fujita"
    ISRC JPP=00702020
    INDEX 00 29:02:06
    INDEX 01 29:03:01
  TRACK 09 AUDIO
    TITLE "Proud of You"
    PERFORMER "Emi Fujita"
    ISRC JPP=00702026
    INDEX 00 34:04:23
    INDEX 01 34:07:20
  TRACK 10 AUDIO
    TITLE "Longer"
    PERFORMER "Emi Fujita"
    ISRC JPP=00702034
    INDEX 00 37:55:21
    INDEX 01 37:57:55
  TRACK 11 AUDIO
    TITLE "Today"
    PERFORMER "Emi Fujita"
    ISRC JPP=00702021
    INDEX 00 41:23:32
    INDEX 01 41:25:56
  TRACK 12 AUDIO
    TITLE "Walking in the Air"
    PERFORMER "Emi Fujita"
    ISRC JPP=00702025
    INDEX 00 45:46:17
    INDEX 01 45:50:73
  TRACK 13 AUDIO
    TITLE "Beneath a Rowan Tree"
    PERFORMER "Emi Fujita"
    ISRC JPP=00702035
    INDEX 01 50:55:64
  TRACK 14 AUDIO
    TITLE "Over the Raibow"
    PERFORMER "Emi Fujita"
    ISRC JPP=00702024
    INDEX 00 55:44:59
    INDEX 01 55:46:22
  TRACK 15 AUDIO
    TITLE "Wide Awake"
    PERFORMER "Emi Fujita"
    ISRC JPP=00702036
    INDEX 00 59:29:24
    INDEX 01 59:31:25
  TRACK 16 AUDIO
    TITLE "Tears in Heaven"
    PERFORMER "Emi Fujita"
    ISRC JPP=00702028
    INDEX 00 63:24:31
    INDEX 01 63:27:53
  TRACK 17 AUDIO
    TITLE "What a Wonderfuk World"
    PERFORMER "Emi Fujita"
    ISRC JPP=00702023
    INDEX 00 68:18:19
    INDEX 01 68:21:46
回复 支持 反对

使用道具 举报

发表于 2017-1-11 19:20:04 | 显示全部楼层
感谢楼主分享藤田美惠的发烧好资源!
回复 支持 反对

使用道具 举报

您需要登录后才可以回帖 登录 | 邀请注册

本版积分规则

Archiver|小黑屋|清风文摘 ( 津ICP备14006513号

GMT+8, 2017-3-28 21:52 , Processed in 0.240317 second(s), 23 queries .

Powered by Discuz! X3.2

© 2001-2013 Comsenz Inc.

快速回复 返回顶部 返回列表