清风文摘

 找回密码
 邀请注册
查看: 145|回复: 8

[欧美] Tiffany (日版)[飞雪原抓][WAV整轨/百度]

[复制链接]
发表于 2017-1-11 08:56:05 | 显示全部楼层 |阅读模式
本帖最后由 飞雪 于 2017-1-11 09:32 编辑






儿时买过一盘她的磁带,最近淘了几张碟Tiffany本名Tiffany Renee Darwish,1971年10月2日出生於加州小镇Norwalk,2岁时开始学习哼歌、跳舞,展露表演天份,8岁时就正式在地区性俱乐部、表演中担任乐团主唱,演唱乡村歌曲。12岁时,音乐製作人George Tobin听到Tiffany的演唱惊为天人,立刻签下Tiffany,展开长达两年的歌唱及表演训练,并挑选合适的歌曲试唱。14岁那年,Tiffany的试唱带获得MCA唱片公司的青睞,签下一纸合约,开始录製正式专辑。Tiffany的首张同名专辑在1987年夏天发行,首支单曲「I Think We're Alone Now」这首翻唱自Tommy James & The Shondells的老歌新唱,一举挤下当时如日中天的流行乐之王Michael Jackson的新歌「Bad」,荣登Billboard流行单曲榜的冠军,以16岁稚龄成为全美最年轻的单曲榜冠军女歌手,在西洋乐坛投下震撼的惊嘆号,也正式宣告Teenage风潮来临。1988年初,抒情小品「Could've Been」再接再厉登上全美冠军,「I Think We're Alone Now」隔海在英国称冠,同名专辑「Tiffany」更在全美狂卖四百万张,登上Billboard流行专辑榜冠军,Tiffany成为史上最年轻的冠军专辑女歌手,并创下多项乐坛纪录。之后推出的第三张单曲「I Saw Him Standing There」是翻唱自Beatles的名作,超旺的人气还是把此曲拱上TOP 7,并打入舞曲榜。1988年秋天,Tiffany在风风雨雨中推出第二张专辑「Hold An Old Friend's Hand」,首支抒情单曲「All This Time」,Tiffany以忧鬱内敛的唱腔唱出恋人分手的心情,直入TOP 6,第二支单曲「Radio Romance」走轻快活泼的路线打入TOP35,第三支单曲「Hold An Old Friend's Hand」则名列抒情榜TOP35。专辑在全美卖出了二百万张,登上Billboard流行专辑榜第17名,表现差强人意。1989年,Tiffany获邀担任卡通电影【Jetsons:The Movie】女主角Judy Jetson的配音工作,并录製原声带歌曲。1990年,Tiffany一改过去流行摇滚+乡村蓝调的曲风,改走R&B、Funk路线,在乐迷与乐评的惊嘆声中,以复古狂野的阿哥哥女郎姿态推出第三张专辑「New Inside」。1993年,Tiffany与原製作人George Tobin再次携手合作,推出走乡村摇滚路线的第四张专辑「Dreams Never Die」,在台湾、日本、香港等地都登上冠军,畅销百万张以上。1996年Tiffany发行了精选辑。

Exact Audio Copy V1.0 beta 6 from 9. April 2015

EAC 抓取日志文件从10. 一月 2017, 10:09

未知艺术家 / 未知标题

使用驱动器  :TSSTcorpDVD-ROM TS-H353B   Adapter: 1  ID: 0

读取模式      : 可靠Secure
使用精确流     : 是
清空音频缓存    : 否
使用 C2 指示器 : 否

组合读写偏移校正:             : 0
读取 Lead-In 和 Lead-Out : 否
用静音填充抓取中丢失偏移的采样       : 是
去除首尾静音块               : 否
在CRC 计算中使用了空样本       : 是
已用接口                  : Win NT 及 2000 本地 Win32 接口

所用输出模式: : 内部 WAV 函数
样本格式    : 44.100 Hz; 16 Bit; 立体声


已抓取 CD 的 TOC

     音轨 |    起始    |    长度    |  起始扇区  |  结束扇区  
    --------------------------------------------
      1 |  0:00.00 |  3:40.62 |      0 |  16561
      2 |  3:40.62 |  4:00.48 |  16562 |  34609
      3 |  7:41.35 |  3:58.37 |  34610 |  52496
      4 | 11:39.72 |  3:52.43 |  52497 |  69939
      5 | 15:32.40 |  4:10.40 |  69940 |  88729
      6 | 19:43.05 |  4:16.60 |  88730 | 107989
      7 | 23:59.65 |  3:20.47 | 107990 | 123036
      8 | 27:20.37 |  4:55.35 | 123037 | 145196
      9 | 32:15.72 |  3:48.63 | 145197 | 162359
     10 | 36:04.60 |  3:34.15 | 162360 | 178424


范围状态及错误

已选择范围

     文件名 F:\CD\TIFFANY\未知艺术家 - 未知标题.wav

     峰值电平 98.0 %
     抓取速度 9.5 X
     范围质量 100.0 %
     复制 CRC 7748C017
     复制成功

没有错误发生

状态报告结尾



游客,如果您要查看本帖隐藏内容请回复




本帖子中包含更多资源

您需要 登录 才可以下载或查看,没有帐号?邀请注册

x

评分

参与人数 1威望 +10 清风币 +10 魅力 +10 钻石 +1 收起 理由
翠峰 + 10 + 10 + 10 + 1 原创资源,感谢支持清风!

查看全部评分

回复

使用道具 举报

发表于 2017-1-11 09:42:07 | 显示全部楼层
试听感觉很熟悉,前奏鼓点很强劲。
回复 支持 反对

使用道具 举报

发表于 2017-1-11 10:43:25 | 显示全部楼层
虽然没听过这个歌手,不过试听曲还是很熟悉的,谢谢楼主。
回复 支持 反对

使用道具 举报

发表于 2017-1-11 16:32:03 | 显示全部楼层
本帖最后由 翠峰 于 2017-1-11 16:35 编辑

那磁带是不是叫做《握住老朋友的手》?.

本帖子中包含更多资源

您需要 登录 才可以下载或查看,没有帐号?邀请注册

x
回复 支持 反对

使用道具 举报

 楼主| 发表于 2017-1-11 22:30:53 | 显示全部楼层
翠峰 发表于 2017-1-11 16:32
那磁带是不是叫做《握住老朋友的手》?.

对呀,就是这个,明天分享这张
回复 支持 反对

使用道具 举报

发表于 2017-1-12 01:52:49 | 显示全部楼层
天呀~~偶像始主~~
回复 支持 反对

使用道具 举报

发表于 2017-1-12 07:21:47 | 显示全部楼层
以前的时代北美是有不少的乡村流行精品的
回复 支持 反对

使用道具 举报

发表于 2017-1-12 08:06:25 | 显示全部楼层
这么有名的专辑呀。
回复 支持 反对

使用道具 举报

发表于 2017-1-17 15:08:46 | 显示全部楼层
80年代的美国玉女歌手,支持一下不错的专辑。
回复 支持 反对

使用道具 举报

您需要登录后才可以回帖 登录 | 邀请注册

本版积分规则

Archiver|小黑屋|清风文摘 ( 津ICP备14006513号

GMT+8, 2017-2-26 13:29 , Processed in 0.333048 second(s), 25 queries .

Powered by Discuz! X3.2

© 2001-2013 Comsenz Inc.

快速回复 返回顶部 返回列表