清风文摘

 找回密码
 邀请注册
查看: 116|回复: 5

[专辑] Van Halen -2015- Live - Tokyo Dome In Concert (Deluxe)[FLAC][百度]

[复制链接]
发表于 2017-1-10 11:45:40 | 显示全部楼层 |阅读模式
感谢原创!






Tracklist:
CD-1
01. Unchained
02. Runnin' With The Devil
03. She's The Woman
04. I'm The One
05. Tattoo
06. Everybody Wants Some!!
07. Somebody Get Me A Doctor
08. China Town
09. Hear About It Later
10. (Oh) Pretty Woman
11. Me & You (Drum Solo)
12. You Really Got Me

CD-2
01. Dance The Night Away
02. I'll Wait
03. And The Cradle Will Rock...
04. Hot For Teacher
05. Women In Love
06. Romeo Delight
07. Mean Street
08. Beautiful Girls
09. Ice Cream Man
10. Panama
11. Eruption
12. Ain't Talkin' 'Bout Love
13. Jump




百度链接:


游客,如果您要查看本帖隐藏内容请回复




本帖子中包含更多资源

您需要 登录 才可以下载或查看,没有帐号?邀请注册

x

评分

参与人数 1威望 +10 清风币 +10 魅力 +10 珍珠 +2 收起 理由
岚窗梅语 + 10 + 10 + 10 + 2 感谢分享,辛苦了!

查看全部评分

回复

使用道具 举报

 楼主| 发表于 2017-1-10 11:45:57 | 显示全部楼层
Exact Audio Copy V1.0 beta 3 from 29. August 2011

EAC extraction logfile from 14. May 2015, 20:35

Van Halen / Tokyo Dome In Concert

Used drive  : Optiarc DVD-ROM DDU1675S   Adapter: 3  ID: 0

Read mode               : Secure
Utilize accurate stream : Yes
Defeat audio cache      : Yes
Make use of C2 pointers : No

Read offset correction                      : 6
Overread into Lead-In and Lead-Out          : No
Fill up missing offset samples with silence : Yes
Delete leading and trailing silent blocks   : No
Null samples used in CRC calculations       : Yes
Used interface                              : Native Win32 interface for Win NT & 2000

Used output format              : User Defined Encoder
Selected bitrate                : 1024 kBit/s
Quality                         : High
Add ID3 tag                     : No
Command line compressor         : C:\Program Files (x86)\Exact Audio Copy\FLAC\FLAC.EXE
Additional command line options : -V -8 -T "Date=%year%" -T "Genre=%genre%" %source%


TOC of the extracted CD

     Track |   Start  |  Length  | Start sector | End sector
    ---------------------------------------------------------
        1  |  0:00.00 |  4:56.65 |         0    |    22264   
        2  |  4:56.65 |  3:44.39 |     22265    |    39103   
        3  |  8:41.29 |  2:57.56 |     39104    |    52434   
        4  | 11:39.10 |  4:12.33 |     52435    |    71367   
        5  | 15:51.43 |  4:32.21 |     71368    |    91788   
        6  | 20:23.64 |  8:30.04 |     91789    |   130042   
        7  | 28:53.68 |  3:22.53 |    130043    |   145245   
        8  | 32:16.46 |  3:22.38 |    145246    |   160433   
        9  | 35:39.09 |  5:11.38 |    160434    |   183796   
       10  | 40:50.47 |  3:08.68 |    183797    |   197964   
       11  | 43:59.40 |  2:54.61 |    197965    |   211075   
       12  | 46:54.26 |  5:34.32 |    211076    |   236157   


Range status and errors

Selected range

     Filename E:\Torrent\# MY\Van Halen - Discography (1978-2012)\Live\2015 - Tokyo Dome In Concert (Deluxe)\CD-1\Van Halen - Tokyo Dome In Concert (CD-1).wav

     Peak level 100.0 %
     Extraction speed 5.9 X
     Range quality 100.0 %
     Test CRC 7C8D6A4B
     Copy CRC 7C8D6A4B
     Copy OK

No errors occurred


AccurateRip summary

Track  1  accurately ripped (confidence 4)  [730679FD]  (AR v2)
Track  2  accurately ripped (confidence 4)  [5A1BA0BC]  (AR v2)
Track  3  accurately ripped (confidence 4)  [2ED4EF64]  (AR v2)
Track  4  accurately ripped (confidence 4)  [99B75B3D]  (AR v2)
Track  5  accurately ripped (confidence 4)  [2A22B9DF]  (AR v2)
Track  6  accurately ripped (confidence 4)  [BD2E99AB]  (AR v2)
Track  7  accurately ripped (confidence 4)  [ADE0C33E]  (AR v2)
Track  8  accurately ripped (confidence 4)  [DEE3CFA5]  (AR v2)
Track  9  accurately ripped (confidence 4)  [1C0EDD26]  (AR v2)
Track 10  accurately ripped (confidence 4)  [3AF66C7B]  (AR v2)
Track 11  accurately ripped (confidence 4)  [3458CF19]  (AR v2)
Track 12  accurately ripped (confidence 4)  [A547AA66]  (AR v2)

All tracks accurately ripped

End of status report

---- CUETools DB Plugin V2.1.3

[CTDB TOCID: KkZpv0rx3g2wFlI_nAmUrjMe2QY-] found, Submit result: KkZpv0rx3g2wFlI_nAmUrjMe2QY- has been confirmed
[2e55fbc7] (35/35) Accurately ripped


==== Log checksum 3D5C9499B3297C1E5162026CA310AEAFF39148BCB083BF7D05214BE8194758D3 ====
回复 支持 反对

使用道具 举报

 楼主| 发表于 2017-1-10 11:46:10 | 显示全部楼层
REM GENRE "Hard Rock"
REM DATE 2015
REM DISCID 9A0C4C0C
REM COMMENT "ExactAudioCopy v1.0b3"
CATALOG 4943674207626
PERFORMER "Van Halen"
TITLE "Tokyo Dome In Concert"
FILE "Van Halen - Tokyo Dome In Concert (CD-1).flac" WAVE
  TRACK 01 AUDIO
    TITLE "Unchained"
    PERFORMER "Van Halen"
    ISRC USRH11401846
    INDEX 01 00:00:00
  TRACK 02 AUDIO
    TITLE "Runnin' With The Devil"
    PERFORMER "Van Halen"
    ISRC USRH11401847
    INDEX 01 04:56:65
  TRACK 03 AUDIO
    TITLE "She's The Woman"
    PERFORMER "Van Halen"
    ISRC USRH11401847
    INDEX 01 08:41:29
  TRACK 04 AUDIO
    TITLE "I'm The One"
    PERFORMER "Van Halen"
    ISRC USRH11401848
    INDEX 01 11:39:10
  TRACK 05 AUDIO
    TITLE "Tattoo"
    PERFORMER "Van Halen"
    ISRC USRH11401850
    INDEX 01 15:51:43
  TRACK 06 AUDIO
    TITLE "Everybody Wants Some!!"
    PERFORMER "Van Halen"
    ISRC USRH11401851
    INDEX 01 20:23:64
  TRACK 07 AUDIO
    TITLE "Somebody Get Me A Doctor"
    PERFORMER "Van Halen"
    ISRC USRH11401852
    INDEX 01 28:53:68
  TRACK 08 AUDIO
    TITLE "China Town"
    PERFORMER "Van Halen"
    ISRC USRH11401853
    INDEX 01 32:16:46
  TRACK 09 AUDIO
    TITLE "Hear About It Later"
    PERFORMER "Van Halen"
    ISRC USRH11401853
    INDEX 01 35:39:09
  TRACK 10 AUDIO
    TITLE "(Oh) Pretty Woman"
    PERFORMER "Van Halen"
    ISRC USRH11401855
    INDEX 01 40:50:47
  TRACK 11 AUDIO
    TITLE "Me & You (Drum Solo)"
    PERFORMER "Van Halen"
    ISRC USRH11401856
    INDEX 01 43:59:40
  TRACK 12 AUDIO
    TITLE "You Really Got Me"
    PERFORMER "Van Halen"
    ISRC USRH11401857
    INDEX 01 46:54:26
回复 支持 反对

使用道具 举报

 楼主| 发表于 2017-1-10 11:46:22 | 显示全部楼层
Exact Audio Copy V1.0 beta 3 from 29. August 2011

EAC extraction logfile from 14. May 2015, 21:02

Van Halen / Tokyo Dome In Concert

Used drive  : Optiarc DVD-ROM DDU1675S   Adapter: 3  ID: 0

Read mode               : Secure
Utilize accurate stream : Yes
Defeat audio cache      : Yes
Make use of C2 pointers : No

Read offset correction                      : 6
Overread into Lead-In and Lead-Out          : No
Fill up missing offset samples with silence : Yes
Delete leading and trailing silent blocks   : No
Null samples used in CRC calculations       : Yes
Used interface                              : Native Win32 interface for Win NT & 2000

Used output format              : User Defined Encoder
Selected bitrate                : 1024 kBit/s
Quality                         : High
Add ID3 tag                     : No
Command line compressor         : C:\Program Files (x86)\Exact Audio Copy\FLAC\FLAC.EXE
Additional command line options : -V -8 -T "Date=%year%" -T "Genre=%genre%" %source%


TOC of the extracted CD

     Track |   Start  |  Length  | Start sector | End sector
    ---------------------------------------------------------
        1  |  0:00.00 |  4:27.34 |         0    |    20058   
        2  |  4:27.34 |  5:03.69 |     20059    |    42852   
        3  |  9:31.28 |  3:44.30 |     42853    |    59682   
        4  | 13:15.58 |  5:44.00 |     59683    |    85482   
        5  | 18:59.58 |  4:24.74 |     85483    |   105356   
        6  | 23:24.57 |  5:47.58 |    105357    |   131439   
        7  | 29:12.40 |  5:11.19 |    131440    |   154783   
        8  | 34:23.59 |  3:36.17 |    154784    |   171000   
        9  | 38:00.01 |  5:10.07 |    171001    |   194257   
       10  | 43:10.08 |  4:20.58 |    194258    |   213815   
       11  | 47:30.66 |  8:08.06 |    213816    |   250421   
       12  | 55:38.72 |  6:07.33 |    250422    |   277979   
       13  | 61:46.30 |  5:48.27 |    277980    |   304106   


Range status and errors

Selected range

     Filename E:\Torrent\# MY\Van Halen - Discography (1978-2012)\Live\2015 - Tokyo Dome In Concert (Deluxe)\CD-2\Van Halen - Tokyo Dome In Concert (CD-2).wav

     Peak level 100.0 %
     Extraction speed 5.1 X
     Range quality 100.0 %
     Test CRC B9415201
     Copy CRC B9415201
     Copy OK

No errors occurred


AccurateRip summary

Track  1  accurately ripped (confidence 4)  [95676415]  (AR v2)
Track  2  accurately ripped (confidence 4)  [F599793B]  (AR v2)
Track  3  accurately ripped (confidence 4)  [CB7578BE]  (AR v2)
Track  4  accurately ripped (confidence 4)  [014322AC]  (AR v2)
Track  5  accurately ripped (confidence 4)  [CAC8F123]  (AR v2)
Track  6  accurately ripped (confidence 4)  [B26B0A57]  (AR v2)
Track  7  accurately ripped (confidence 4)  [5F54D0BB]  (AR v2)
Track  8  accurately ripped (confidence 4)  [3554C337]  (AR v2)
Track  9  accurately ripped (confidence 4)  [F6D79888]  (AR v2)
Track 10  accurately ripped (confidence 4)  [B3DEFC98]  (AR v2)
Track 11  accurately ripped (confidence 4)  [892A4DB4]  (AR v2)
Track 12  accurately ripped (confidence 4)  [E7FDAB78]  (AR v2)
Track 13  accurately ripped (confidence 4)  [7F47974F]  (AR v2)

All tracks accurately ripped

End of status report

---- CUETools DB Plugin V2.1.3

[CTDB TOCID: v_G7RfypUyXppvk.4w7j06mhvrk-] found, Submit result: v_G7RfypUyXppvk.4w7j06mhvrk- has been confirmed
[3c0029a6] (34/34) Accurately ripped


==== Log checksum 8767B9F47CD711F09C760BCCCE92B4CB424BC26FF8589D4B8D33FBD73CFE2F34 ====
回复 支持 反对

使用道具 举报

 楼主| 发表于 2017-1-10 11:46:34 | 显示全部楼层
REM GENRE "Hard Rock"
REM DATE 2015
REM DISCID B60FD60D
REM COMMENT "ExactAudioCopy v1.0b3"
CATALOG 4943674207626
PERFORMER "Van Halen"
TITLE "Tokyo Dome In Concert"
FILE "Van Halen - Tokyo Dome In Concert (CD-2).flac" WAVE
  TRACK 01 AUDIO
    TITLE "Dance The Night Away"
    PERFORMER "Van Halen"
    ISRC USRH11401858
    INDEX 01 00:00:00
  TRACK 02 AUDIO
    TITLE "I'll Wait"
    PERFORMER "Van Halen"
    ISRC USRH11401859
    INDEX 01 04:27:34
  TRACK 03 AUDIO
    TITLE "And The Cradle Will Rock..."
    PERFORMER "Van Halen"
    ISRC USRH11401859
    INDEX 01 09:31:28
  TRACK 04 AUDIO
    TITLE "Hot For Teacher"
    PERFORMER "Van Halen"
    ISRC USRH11401861
    INDEX 01 13:15:58
  TRACK 05 AUDIO
    TITLE "Women In Love"
    PERFORMER "Van Halen"
    ISRC USRH11401862
    INDEX 01 18:59:58
  TRACK 06 AUDIO
    TITLE "Romeo Delight"
    PERFORMER "Van Halen"
    ISRC USRH11401863
    INDEX 01 23:24:57
  TRACK 07 AUDIO
    TITLE "Mean Street"
    PERFORMER "Van Halen"
    ISRC USRH11401864
    INDEX 01 29:12:40
  TRACK 08 AUDIO
    TITLE "Beautiful Girls"
    PERFORMER "Van Halen"
    ISRC USRH11401865
    INDEX 01 34:23:59
  TRACK 09 AUDIO
    TITLE "Ice Cream Man"
    PERFORMER "Van Halen"
    ISRC USRH11401866
    INDEX 01 38:00:01
  TRACK 10 AUDIO
    TITLE "Panama"
    PERFORMER "Van Halen"
    ISRC USRH11401866
    INDEX 01 43:10:08
  TRACK 11 AUDIO
    TITLE "Eruption"
    PERFORMER "Van Halen"
    ISRC USRH11401867
    INDEX 01 47:30:66
  TRACK 12 AUDIO
    TITLE "Ain't Talkin' 'Bout Love"
    PERFORMER "Van Halen"
    ISRC USRH11401868
    INDEX 01 55:38:72
  TRACK 13 AUDIO
    TITLE "Jump"
    PERFORMER "Van Halen"
    ISRC USRH11401870
    INDEX 01 61:46:30
回复 支持 反对

使用道具 举报

发表于 2017-1-10 20:08:18 | 显示全部楼层
感谢分享,好好珍藏
回复 支持 反对

使用道具 举报

您需要登录后才可以回帖 登录 | 邀请注册

本版积分规则

Archiver|小黑屋|清风文摘 ( 津ICP备14006513号

GMT+8, 2017-3-28 22:05 , Processed in 0.274269 second(s), 27 queries .

Powered by Discuz! X3.2

© 2001-2013 Comsenz Inc.

快速回复 返回顶部 返回列表