清风文摘

 找回密码
 邀请注册
查看: 28|回复: 2

[专辑] Van Halen -2012- A Different Kind Of Truth (EU. BIEM 0602527947297)[FLAC][百度]

[复制链接]
发表于 7 天前 | 显示全部楼层 |阅读模式
感谢原创!





Tracklist:
01. Tattoo
02. She's The Woman
03. You And Your Blues
04. China Town
05. Blood And Fire
06. Bullethead
07. As Is
08. Honeybabysweetiedoll
09. The Trouble With Never
10. Outta Space
11. Stay Frosty
12. Big River
13. Beats Workin'




百度链接:


游客,如果您要查看本帖隐藏内容请回复




本帖子中包含更多资源

您需要 登录 才可以下载或查看,没有帐号?邀请注册

x

评分

参与人数 1威望 +5 清风币 +5 魅力 +5 珍珠 +1 收起 理由
岚窗梅语 + 5 + 5 + 5 + 1 感谢分享,辛苦了!

查看全部评分

回复

使用道具 举报

 楼主| 发表于 7 天前 | 显示全部楼层
Exact Audio Copy V1.0 beta 3 from 29. August 2011

EAC extraction logfile from 22. February 2012, 21:19

Van Halen / A Different Kind Of Truth

Used drive  : Optiarc DVD-ROM DDU1675S   Adapter: 0  ID: 1

Read mode               : Secure
Utilize accurate stream : Yes
Defeat audio cache      : Yes
Make use of C2 pointers : No

Read offset correction                      : 6
Overread into Lead-In and Lead-Out          : No
Fill up missing offset samples with silence : Yes
Delete leading and trailing silent blocks   : No
Null samples used in CRC calculations       : Yes
Used interface                              : Native Win32 interface for Win NT & 2000

Used output format              : User Defined Encoder
Selected bitrate                : 1024 kBit/s
Quality                         : High
Add ID3 tag                     : No
Command line compressor         : C:\Program Files (x86)\Exact Audio Copy\Flac\flac.exe
Additional command line options : -V -8 -T "Date=%year%" -T "Genre=%genre%" %source%


TOC of the extracted CD

     Track |   Start  |  Length  | Start sector | End sector
    ---------------------------------------------------------
        1  |  0:00.00 |  4:44.28 |         0    |    21327   
        2  |  4:44.28 |  2:57.47 |     21328    |    34649   
        3  |  7:42.00 |  3:43.63 |     34650    |    51437   
        4  | 11:25.63 |  3:15.31 |     51438    |    66093   
        5  | 14:41.19 |  4:26.71 |     66094    |    86114   
        6  | 19:08.15 |  2:31.49 |     86115    |    97488   
        7  | 21:39.64 |  4:47.37 |     97489    |   119050   
        8  | 26:27.26 |  3:47.45 |    119051    |   136120   
        9  | 30:14.71 |  3:59.48 |    136121    |   154093   
       10  | 34:14.44 |  2:54.17 |    154094    |   167160   
       11  | 37:08.61 |  4:08.25 |    167161    |   185785   
       12  | 41:17.11 |  3:51.51 |    185786    |   203161   
       13  | 45:08.62 |  5:03.72 |    203162    |   225958   


Range status and errors

Selected range

     Filename F:\Torrent\# MY\Van Halen - Discography (1978-2012)\Albums\2012 - A Different Kind Of Truth\Van Halen - A Different Kind Of Truth.wav

     Peak level 100.0 %
     Extraction speed 8.1 X
     Range quality 100.0 %
     Test CRC 06ECAFC0
     Copy CRC 06ECAFC0
     Copy OK

No errors occurred


AccurateRip summary

Track  1  accurately ripped (confidence 6)  [3BD3DAF8]  (AR v1)
Track  2  accurately ripped (confidence 6)  [4C60E377]  (AR v1)
Track  3  accurately ripped (confidence 6)  [6F633C20]  (AR v1)
Track  4  accurately ripped (confidence 6)  [8BF658E3]  (AR v1)
Track  5  accurately ripped (confidence 6)  [6F8B12F0]  (AR v1)
Track  6  accurately ripped (confidence 6)  [1A2F51D9]  (AR v1)
Track  7  accurately ripped (confidence 6)  [7A16E076]  (AR v1)
Track  8  accurately ripped (confidence 6)  [6DF0EAE7]  (AR v1)
Track  9  accurately ripped (confidence 6)  [B7647145]  (AR v1)
Track 10  accurately ripped (confidence 5)  [E08CDCAE]  (AR v1)
Track 11  accurately ripped (confidence 6)  [A13E7CB6]  (AR v1)
Track 12  accurately ripped (confidence 6)  [7F1D8EB0]  (AR v1)
Track 13  accurately ripped (confidence 6)  [5D707F40]  (AR v1)

All tracks accurately ripped

End of status report

==== Log checksum 62708B9A87837BA31D2EE7BCDF8A6E366F67B3D52421DB77444D934A061B5BF0 ====
回复 支持 反对

使用道具 举报

 楼主| 发表于 7 天前 | 显示全部楼层
REM GENRE "Hard Rock"
REM DATE 2012
REM DISCID AF0BC40D
REM COMMENT "ExactAudioCopy v1.0b3"
PERFORMER "Van Halen"
TITLE "A Different Kind Of Truth"
FILE "Van Halen - A Different Kind Of Truth.flac" WAVE
  TRACK 01 AUDIO
    TITLE "Tattoo"
    PERFORMER "Van Halen"
    INDEX 01 00:00:00
  TRACK 02 AUDIO
    TITLE "She's The Woman"
    PERFORMER "Van Halen"
    INDEX 00 04:43:03
    INDEX 01 04:44:28
  TRACK 03 AUDIO
    TITLE "You And Your Blues"
    PERFORMER "Van Halen"
    INDEX 00 07:40:66
    INDEX 01 07:42:00
  TRACK 04 AUDIO
    TITLE "China Town"
    PERFORMER "Van Halen"
    INDEX 00 11:25:20
    INDEX 01 11:25:63
  TRACK 05 AUDIO
    TITLE "Blood And Fire"
    PERFORMER "Van Halen"
    INDEX 00 14:40:04
    INDEX 01 14:41:19
  TRACK 06 AUDIO
    TITLE "Bullethead"
    PERFORMER "Van Halen"
    INDEX 00 19:07:71
    INDEX 01 19:08:15
  TRACK 07 AUDIO
    TITLE "As Is"
    PERFORMER "Van Halen"
    INDEX 00 21:38:65
    INDEX 01 21:39:64
  TRACK 08 AUDIO
    TITLE "Honeybabysweetiedoll"
    PERFORMER "Van Halen"
    INDEX 01 26:27:26
  TRACK 09 AUDIO
    TITLE "The Trouble With Never"
    PERFORMER "Van Halen"
    INDEX 00 30:13:67
    INDEX 01 30:14:71
  TRACK 10 AUDIO
    TITLE "Outta Space"
    PERFORMER "Van Halen"
    INDEX 00 34:13:68
    INDEX 01 34:14:44
  TRACK 11 AUDIO
    TITLE "Stay Frosty"
    PERFORMER "Van Halen"
    INDEX 00 37:07:70
    INDEX 01 37:08:61
  TRACK 12 AUDIO
    TITLE "Big River"
    PERFORMER "Van Halen"
    INDEX 00 41:16:20
    INDEX 01 41:17:11
  TRACK 13 AUDIO
    TITLE "Beats Workin'"
    PERFORMER "Van Halen"
    INDEX 00 45:07:67
    INDEX 01 45:08:62
回复 支持 反对

使用道具 举报

您需要登录后才可以回帖 登录 | 邀请注册

本版积分规则

Archiver|小黑屋|清风文摘 ( 津ICP备14006513号

GMT+8, 2017-1-17 18:50 , Processed in 0.258427 second(s), 25 queries .

Powered by Discuz! X3.2

© 2001-2013 Comsenz Inc.

快速回复 返回顶部 返回列表