清风文摘

 找回密码
 邀请注册
查看: 80|回复: 4

[专辑] Van Halen -2004- The Best Of Both Worlds (U.S.A. R2 78961)[FLAC][百度]

[复制链接]
发表于 2017-1-10 11:40:27 | 显示全部楼层 |阅读模式
感谢原创!





Tracklist:
CD-1
01. Eruption
02. It's About Time (New song)
03. Up For Breakfast (New song)
04. Learning To See (New song)
05. Ain't Talkin' 'Bout Love
06. Finish What Ya Started
07. You Really Got Me
08. Dreams
09. Hot For Teacher
10. Poundcake
11. And The Cradle Will Rock...
12. Black And Blue
13. Jump
14. Top Of The World
15. (Oh) Pretty Woman
16. Love Walks In
17. Beautiful Girls
18. Can't Stop Lovin' You
19. Unchained

CD-2
01. Panama
02. Best Of Both Worlds
03. Jamie's Cryin'
04. Runaround
05. I'll Wait
06. Why Can't This Be Love
07. Runnin' With The Devil
08. When It's Love
09. Dancing In The Street
10. Not Enough
11. Feels So Good
12. Right Now
13. Everybody Wants Some!!
14. Dance The Night Away
15. Ain't Talkin' 'Bout Love (Live)
16. Panama (Live)
17. Jump (Live)



百度链接:


游客,如果您要查看本帖隐藏内容请回复




本帖子中包含更多资源

您需要 登录 才可以下载或查看,没有帐号?邀请注册

x

评分

参与人数 1威望 +10 清风币 +10 魅力 +10 珍珠 +2 收起 理由
岚窗梅语 + 10 + 10 + 10 + 2 感谢分享,辛苦了!

查看全部评分

回复

使用道具 举报

 楼主| 发表于 2017-1-10 11:40:46 | 显示全部楼层
Exact Audio Copy V1.0 beta 1 from 15. November 2010

EAC extraction logfile from 6. November 2011, 17:09

Van Halen / The Best Of Both Worlds

Used drive  : ASUS    DRW-24B1ST   Adapter: 5  ID: 0

Read mode               : Secure
Utilize accurate stream : Yes
Defeat audio cache      : Yes
Make use of C2 pointers : No

Read offset correction                      : 6
Overread into Lead-In and Lead-Out          : No
Fill up missing offset samples with silence : Yes
Delete leading and trailing silent blocks   : No
Null samples used in CRC calculations       : Yes
Used interface                              : Installed external ASPI interface

Used output format              : User Defined Encoder
Selected bitrate                : 128 kBit/s
Quality                         : High
Add ID3 tag                     : No
Command line compressor         : D:\Rec Install\lossless\lossless\Exact Audio Copy 0.9b4 + APE WV & FLAC Encoders\FLAC.EXE
Additional command line options : -8 -V %s


TOC of the extracted CD

     Track |   Start  |  Length  | Start sector | End sector
    ---------------------------------------------------------
        1  |  0:00.00 |  1:43.35 |         0    |     7759   
        2  |  1:43.35 |  4:15.15 |      7760    |    26899   
        3  |  5:58.50 |  4:57.07 |     26900    |    49181   
        4  | 10:55.57 |  5:15.70 |     49182    |    72876   
        5  | 16:11.52 |  3:48.45 |     72877    |    90021   
        6  | 20:00.22 |  4:24.30 |     90022    |   109851   
        7  | 24:24.52 |  2:38.43 |    109852    |   121744   
        8  | 27:03.20 |  4:53.57 |    121745    |   143776   
        9  | 31:57.02 |  4:43.18 |    143777    |   165019   
       10  | 36:40.20 |  5:20.70 |    165020    |   189089   
       11  | 42:01.15 |  3:34.15 |    189090    |   205154   
       12  | 45:35.30 |  5:27.27 |    205155    |   229706   
       13  | 51:02.57 |  4:04.08 |    229707    |   248014   
       14  | 55:06.65 |  3:54.57 |    248015    |   265621   
       15  | 59:01.47 |  2:53.43 |    265622    |   278639   
       16  | 61:55.15 |  5:11.47 |    278640    |   302011   
       17  | 67:06.62 |  3:57.20 |    302012    |   319806   
       18  | 71:04.07 |  4:08.15 |    319807    |   338421   
       19  | 75:12.22 |  3:29.20 |    338422    |   354116   


Range status and errors

Selected range

     Filename G:\Torrent\# MY\Van Halen - Discography (1978-2004)\Compilations\2004 - The Best Of Both Worlds\CD-1\Van Halen - The Best Of Both Worlds (CD-1).wav

     Peak level 99.7 %
     Extraction speed 0.2 X
     Range quality 100.0 %
     Test CRC B8E90AD2
     Copy CRC B8E90AD2
     Copy OK

No errors occurred


AccurateRip summary

Track  1  accurately ripped (confidence 15)  [6B4B3420]
Track  2  accurately ripped (confidence 15)  [FA06DAB4]
Track  3  accurately ripped (confidence 15)  [ECAB152C]
Track  4  accurately ripped (confidence 15)  [E25E1322]
Track  5  accurately ripped (confidence 16)  [C1E97945]
Track  6  accurately ripped (confidence 16)  [55651737]
Track  7  accurately ripped (confidence 16)  [83921C4F]
Track  8  accurately ripped (confidence 15)  [05E293B7]
Track  9  accurately ripped (confidence 16)  [ECC00A2A]
Track 10  accurately ripped (confidence 15)  [292A7B1A]
Track 11  accurately ripped (confidence 16)  [EE90F1E8]
Track 12  accurately ripped (confidence 15)  [BC5CABED]
Track 13  accurately ripped (confidence 15)  [CB4FB4A9]
Track 14  accurately ripped (confidence 16)  [BF069D56]
Track 15  accurately ripped (confidence 15)  [7C7EC886]
Track 16  accurately ripped (confidence 15)  [3153D26D]
Track 17  accurately ripped (confidence 14)  [8226624A]
Track 18  accurately ripped (confidence 16)  [E3F20DE7]
Track 19  accurately ripped (confidence 15)  [0E07CB93]

All tracks accurately ripped

End of status report
回复 支持 反对

使用道具 举报

 楼主| 发表于 2017-1-10 11:40:57 | 显示全部楼层
REM GENRE "Hard Rock"
REM DATE 2004
REM DISCID FD127113
REM COMMENT "ExactAudioCopy v1.0b1"
PERFORMER "Van Halen"
TITLE "The Best Of Both Worlds"
FILE "Van Halen - The Best Of Both Worlds (CD-1).flac" WAVE
  TRACK 01 AUDIO
    TITLE "Eruption"
    PERFORMER "Van Halen"
    INDEX 01 00:00:00
  TRACK 02 AUDIO
    TITLE "It's About Time"
    PERFORMER "Van Halen"
    INDEX 01 01:43:35
  TRACK 03 AUDIO
    TITLE "Up For Breakfast"
    PERFORMER "Van Halen"
    INDEX 01 05:58:50
  TRACK 04 AUDIO
    TITLE "Learning To See"
    PERFORMER "Van Halen"
    INDEX 01 10:55:57
  TRACK 05 AUDIO
    TITLE "Ain't Talkin' 'Bout Love"
    PERFORMER "Van Halen"
    INDEX 01 16:11:52
  TRACK 06 AUDIO
    TITLE "Finish What Ya Started"
    PERFORMER "Van Halen"
    INDEX 00 19:59:10
    INDEX 01 20:00:22
  TRACK 07 AUDIO
    TITLE "You Really Got Me"
    PERFORMER "Van Halen"
    INDEX 00 24:23:40
    INDEX 01 24:24:52
  TRACK 08 AUDIO
    TITLE "Dreams"
    PERFORMER "Van Halen"
    INDEX 01 27:03:20
  TRACK 09 AUDIO
    TITLE "Hot For Teacher"
    PERFORMER "Van Halen"
    INDEX 00 31:55:45
    INDEX 01 31:57:02
  TRACK 10 AUDIO
    TITLE "Poundcake"
    PERFORMER "Van Halen"
    INDEX 00 36:38:70
    INDEX 01 36:40:20
  TRACK 11 AUDIO
    TITLE "And The Cradle Will Rock..."
    PERFORMER "Van Halen"
    INDEX 01 42:01:15
  TRACK 12 AUDIO
    TITLE "Black And Blue"
    PERFORMER "Van Halen"
    INDEX 00 45:34:07
    INDEX 01 45:35:30
  TRACK 13 AUDIO
    TITLE "Jump"
    PERFORMER "Van Halen"
    INDEX 01 51:02:57
  TRACK 14 AUDIO
    TITLE "Top Of The World"
    PERFORMER "Van Halen"
    INDEX 01 55:06:65
  TRACK 15 AUDIO
    TITLE "(Oh) Pretty Woman"
    PERFORMER "Van Halen"
    INDEX 01 59:01:47
  TRACK 16 AUDIO
    TITLE "Love Walks In"
    PERFORMER "Van Halen"
    INDEX 01 61:55:15
  TRACK 17 AUDIO
    TITLE "Beautiful Girls"
    PERFORMER "Van Halen"
    INDEX 01 67:06:62
  TRACK 18 AUDIO
    TITLE "Can't Stop Lovin' You"
    PERFORMER "Van Halen"
    INDEX 01 71:04:07
  TRACK 19 AUDIO
    TITLE "Unchained"
    PERFORMER "Van Halen"
    INDEX 01 75:12:22
回复 支持 反对

使用道具 举报

 楼主| 发表于 2017-1-10 11:41:08 | 显示全部楼层
Exact Audio Copy V1.0 beta 1 from 15. November 2010

EAC extraction logfile from 6. November 2011, 17:49

Van Halen / The Best Of Both Worlds

Used drive  : ASUS    DRW-24B1ST   Adapter: 5  ID: 0

Read mode               : Secure
Utilize accurate stream : Yes
Defeat audio cache      : Yes
Make use of C2 pointers : No

Read offset correction                      : 6
Overread into Lead-In and Lead-Out          : No
Fill up missing offset samples with silence : Yes
Delete leading and trailing silent blocks   : No
Null samples used in CRC calculations       : Yes
Used interface                              : Installed external ASPI interface

Used output format              : User Defined Encoder
Selected bitrate                : 128 kBit/s
Quality                         : High
Add ID3 tag                     : No
Command line compressor         : D:\Rec Install\lossless\lossless\Exact Audio Copy 0.9b4 + APE WV & FLAC Encoders\FLAC.EXE
Additional command line options : -8 -V %s


TOC of the extracted CD

     Track |   Start  |  Length  | Start sector | End sector
    ---------------------------------------------------------
        1  |  0:00.00 |  3:32.42 |         0    |    15941   
        2  |  3:32.42 |  4:49.28 |     15942    |    37644   
        3  |  8:21.70 |  3:30.60 |     37645    |    53454   
        4  | 11:52.55 |  4:20.27 |     53455    |    72981   
        5  | 16:13.07 |  4:42.38 |     72982    |    94169   
        6  | 20:55.45 |  3:48.25 |     94170    |   111294   
        7  | 24:43.70 |  3:36.55 |    111295    |   127549   
        8  | 28:20.50 |  5:38.72 |    127550    |   152971   
        9  | 33:59.47 |  3:45.18 |    152972    |   169864   
       10  | 37:44.65 |  6:48.60 |    169865    |   200524   
       11  | 44:33.50 |  4:32.25 |    200525    |   220949   
       12  | 49:06.00 |  5:22.45 |    220950    |   245144   
       13  | 54:28.45 |  5:10.05 |    245145    |   268399   
       14  | 59:38.50 |  3:10.00 |    268400    |   282649   
       15  | 62:48.50 |  4:43.55 |    282650    |   303929   
       16  | 67:32.30 |  6:39.32 |    303930    |   333886   
       17  | 74:11.62 |  4:20.28 |    333887    |   353414   


Range status and errors

Selected range

     Filename G:\Torrent\# MY\Van Halen - Discography (1978-2004)\Compilations\2004 - The Best Of Both Worlds\CD-2\Van Halen - The Best Of Both Worlds (CD-2).wav

     Peak level 99.7 %
     Extraction speed 0.2 X
     Range quality 100.0 %
     Test CRC 02617775
     Copy CRC 02617775
     Copy OK

No errors occurred


AccurateRip summary

Track  1  accurately ripped (confidence 12)  [991E7C33]
Track  2  accurately ripped (confidence 11)  [A5C41EDB]
Track  3  accurately ripped (confidence 12)  [F1ADB47C]
Track  4  accurately ripped (confidence 11)  [48F687CA]
Track  5  accurately ripped (confidence 11)  [3E80BCC3]
Track  6  accurately ripped (confidence 12)  [BD71070A]
Track  7  accurately ripped (confidence 12)  [727431AC]
Track  8  accurately ripped (confidence 12)  [43C8FC07]
Track  9  accurately ripped (confidence 12)  [7A65DE88]
Track 10  accurately ripped (confidence 11)  [705AE5B1]
Track 11  accurately ripped (confidence 12)  [2C5FC8FF]
Track 12  accurately ripped (confidence 12)  [AF7A0143]
Track 13  accurately ripped (confidence 11)  [E12D38D9]
Track 14  accurately ripped (confidence 11)  [6EA73FE1]
Track 15  accurately ripped (confidence 11)  [81AD44A2]
Track 16  accurately ripped (confidence 11)  [FF550476]
Track 17  accurately ripped (confidence 10)  [C914F840]

All tracks accurately ripped

End of status report
回复 支持 反对

使用道具 举报

 楼主| 发表于 2017-1-10 11:41:20 | 显示全部楼层
REM GENRE "Hard Rock"
REM DATE 2004
REM DISCID E9126811
REM COMMENT "ExactAudioCopy v1.0b1"
PERFORMER "Van Halen"
TITLE "The Best Of Both Worlds"
FILE "Van Halen - The Best Of Both Worlds (CD-2).flac" WAVE
  TRACK 01 AUDIO
    TITLE "Panama"
    PERFORMER "Van Halen"
    INDEX 01 00:00:00
  TRACK 02 AUDIO
    TITLE "Best Of Both Worlds"
    PERFORMER "Van Halen"
    INDEX 00 03:31:22
    INDEX 01 03:32:42
  TRACK 03 AUDIO
    TITLE "Jamie's Cryin'"
    PERFORMER "Van Halen"
    INDEX 01 08:21:70
  TRACK 04 AUDIO
    TITLE "Runaround"
    PERFORMER "Van Halen"
    INDEX 01 11:52:55
  TRACK 05 AUDIO
    TITLE "I'll Wait"
    PERFORMER "Van Halen"
    INDEX 01 16:13:07
  TRACK 06 AUDIO
    TITLE "Why Can't This Be Love"
    PERFORMER "Van Halen"
    INDEX 01 20:55:45
  TRACK 07 AUDIO
    TITLE "Runnin' With The Devil"
    PERFORMER "Van Halen"
    INDEX 01 24:43:70
  TRACK 08 AUDIO
    TITLE "When It's Love"
    PERFORMER "Van Halen"
    INDEX 01 28:20:50
  TRACK 09 AUDIO
    TITLE "Dancing In The Street"
    PERFORMER "Van Halen"
    INDEX 01 33:59:47
  TRACK 10 AUDIO
    TITLE "Not Enough"
    PERFORMER "Van Halen"
    INDEX 00 37:43:60
    INDEX 01 37:44:65
  TRACK 11 AUDIO
    TITLE "Feels So Good"
    PERFORMER "Van Halen"
    INDEX 01 44:33:50
  TRACK 12 AUDIO
    TITLE "Right Now"
    PERFORMER "Van Halen"
    INDEX 01 49:06:00
  TRACK 13 AUDIO
    TITLE "Everybody Wants Some!!"
    PERFORMER "Van Halen"
    INDEX 01 54:28:45
  TRACK 14 AUDIO
    TITLE "Dance The Night Away"
    PERFORMER "Van Halen"
    INDEX 00 59:37:45
    INDEX 01 59:38:50
  TRACK 15 AUDIO
    TITLE "Ain't Talkin' 'Bout Love (Live)"
    PERFORMER "Van Halen"
    INDEX 00 62:47:47
    INDEX 01 62:48:50
  TRACK 16 AUDIO
    TITLE "Panama (Live)"
    PERFORMER "Van Halen"
    INDEX 01 67:32:30
  TRACK 17 AUDIO
    TITLE "Jump (Live)"
    PERFORMER "Van Halen"
    INDEX 01 74:11:62
回复 支持 反对

使用道具 举报

您需要登录后才可以回帖 登录 | 邀请注册

本版积分规则

Archiver|小黑屋|清风文摘 ( 津ICP备14006513号

GMT+8, 2017-2-26 13:28 , Processed in 0.283814 second(s), 27 queries .

Powered by Discuz! X3.2

© 2001-2013 Comsenz Inc.

快速回复 返回顶部 返回列表