清风文摘

 找回密码
 邀请注册
查看: 25|回复: 2

[专辑] Van Halen -1998- Van Halen 3 (Germany 9362-46662-2)[FLAC][百度]

[复制链接]
发表于 7 天前 | 显示全部楼层 |阅读模式
感谢原创!






Tracklist:
01. Neworld
02. Without You
03. One I Want
04. From Afar
05. Dirty Water Dog
06. Once
07. Fire In The Hole
08. Josephina
09. Year To The Day
10. Primary
11. Ballot Or The Bullet
12. How Many Say I




百度链接:


游客,如果您要查看本帖隐藏内容请回复




本帖子中包含更多资源

您需要 登录 才可以下载或查看,没有帐号?邀请注册

x

评分

参与人数 1威望 +5 清风币 +5 魅力 +5 珍珠 +1 收起 理由
岚窗梅语 + 5 + 5 + 5 + 1 感谢分享,辛苦了!

查看全部评分

回复

使用道具 举报

 楼主| 发表于 7 天前 | 显示全部楼层
Exact Audio Copy V1.0 beta 1 from 15. November 2010

EAC extraction logfile from 9. November 2011, 23:34

Van Halen / Van Halen 3

Used drive  : Optiarc DVD-ROM DDU1675S   Adapter: 4  ID: 0

Read mode               : Secure
Utilize accurate stream : Yes
Defeat audio cache      : Yes
Make use of C2 pointers : No

Read offset correction                      : 6
Overread into Lead-In and Lead-Out          : No
Fill up missing offset samples with silence : Yes
Delete leading and trailing silent blocks   : No
Null samples used in CRC calculations       : Yes
Used interface                              : Installed external ASPI interface

Used output format              : User Defined Encoder
Selected bitrate                : 128 kBit/s
Quality                         : High
Add ID3 tag                     : No
Command line compressor         : D:\Rec Install\lossless\lossless\Exact Audio Copy 0.9b4 + APE WV & FLAC Encoders\FLAC.EXE
Additional command line options : -8 -V %s


TOC of the extracted CD

     Track |   Start  |  Length  | Start sector | End sector
    ---------------------------------------------------------
        1  |  0:00.00 |  1:45.42 |         0    |     7916   
        2  |  1:45.42 |  6:30.08 |      7917    |    37174   
        3  |  8:15.50 |  5:30.60 |     37175    |    61984   
        4  | 13:46.35 |  5:24.17 |     61985    |    86301   
        5  | 19:10.52 |  5:27.23 |     86302    |   110849   
        6  | 24:38.00 |  7:42.55 |    110850    |   145554   
        7  | 32:20.55 |  5:31.47 |    145555    |   170426   
        8  | 37:52.27 |  5:42.30 |    170427    |   196106   
        9  | 43:34.57 |  8:34.40 |    196107    |   234696   
       10  | 52:09.22 |  1:27.00 |    234697    |   241221   
       11  | 53:36.22 |  5:42.08 |    241222    |   266879   
       12  | 59:18.30 |  6:04.02 |    266880    |   294181   


Range status and errors

Selected range

     Filename G:\Torrent\# MY\Van Halen - Discography (1978-2004)\Albums (Original)\1998 - Van Halen 3\Van Halen - Van Halen 3.wav

     Peak level 100.0 %
     Extraction speed 0.4 X
     Range quality 100.0 %
     Test CRC 0D533FAA
     Copy CRC 0D533FAA
     Copy OK

No errors occurred


AccurateRip summary

Track  1  accurately ripped (confidence 22)  [499FD57A]
Track  2  accurately ripped (confidence 21)  [49E575FC]
Track  3  accurately ripped (confidence 22)  [85424F1F]
Track  4  accurately ripped (confidence 22)  [8032FB4D]
Track  5  accurately ripped (confidence 22)  [79880631]
Track  6  accurately ripped (confidence 22)  [A9E22DCB]
Track  7  accurately ripped (confidence 22)  [03D1B7F9]
Track  8  accurately ripped (confidence 21)  [E02A69EA]
Track  9  accurately ripped (confidence 22)  [42E8BE3A]
Track 10  accurately ripped (confidence 21)  [A893C513]
Track 11  accurately ripped (confidence 22)  [E0200F2A]
Track 12  accurately ripped (confidence 22)  [17D34054]

All tracks accurately ripped

End of status report
回复 支持 反对

使用道具 举报

 楼主| 发表于 7 天前 | 显示全部楼层
REM GENRE "Hard Rock"
REM DATE 1998
REM DISCID 980F520C
REM COMMENT "ExactAudioCopy v1.0b1"
PERFORMER "Van Halen"
TITLE "Van Halen 3"
FILE "Van Halen - Van Halen 3.flac" WAVE
  TRACK 01 AUDIO
    TITLE "Neworld"
    PERFORMER "Van Halen"
    INDEX 01 00:00:00
  TRACK 02 AUDIO
    TITLE "Without You"
    PERFORMER "Van Halen"
    INDEX 01 01:45:42
  TRACK 03 AUDIO
    TITLE "One I Want"
    PERFORMER "Van Halen"
    INDEX 00 08:13:72
    INDEX 01 08:15:50
  TRACK 04 AUDIO
    TITLE "From Afar"
    PERFORMER "Van Halen"
    INDEX 01 13:46:35
  TRACK 05 AUDIO
    TITLE "Dirty Water Dog"
    PERFORMER "Van Halen"
    INDEX 00 19:06:05
    INDEX 01 19:10:52
  TRACK 06 AUDIO
    TITLE "Once"
    PERFORMER "Van Halen"
    INDEX 00 24:34:70
    INDEX 01 24:38:00
  TRACK 07 AUDIO
    TITLE "Fire In The Hole"
    PERFORMER "Van Halen"
    INDEX 00 32:18:12
    INDEX 01 32:20:55
  TRACK 08 AUDIO
    TITLE "Josephina"
    PERFORMER "Van Halen"
    INDEX 00 37:47:62
    INDEX 01 37:52:27
  TRACK 09 AUDIO
    TITLE "Year To The Day"
    PERFORMER "Van Halen"
    INDEX 00 43:30:72
    INDEX 01 43:34:57
  TRACK 10 AUDIO
    TITLE "Primary"
    PERFORMER "Van Halen"
    INDEX 00 52:06:67
    INDEX 01 52:09:22
  TRACK 11 AUDIO
    TITLE "Ballot Or The Bullet"
    PERFORMER "Van Halen"
    INDEX 01 53:36:22
  TRACK 12 AUDIO
    TITLE "How Many Say I"
    PERFORMER "Van Halen"
    INDEX 00 59:13:65
    INDEX 01 59:18:30
回复 支持 反对

使用道具 举报

您需要登录后才可以回帖 登录 | 邀请注册

本版积分规则

Archiver|小黑屋|清风文摘 ( 津ICP备14006513号

GMT+8, 2017-1-17 18:55 , Processed in 0.342301 second(s), 27 queries .

Powered by Discuz! X3.2

© 2001-2013 Comsenz Inc.

快速回复 返回顶部 返回列表