清风文摘

 找回密码
 邀请注册
查看: 81|回复: 2

[专辑] Van Halen -1996- The Best Of Volume 1 (2010 Japanese Bonus Track WPCR-14063)[...

[复制链接]
发表于 2017-1-10 11:35:53 | 显示全部楼层 |阅读模式

感谢原创!





01. Eruption (1:43)
02. Ain't Talkin' 'Bout Love (3:48)
03. Runnin' With The Devil (3:37)
04. Dance The Night Away (3:08)
05. And The Cradle Will Rock... (3:35)
06. Unchained (3:29)
07. Jump (4:04)
08. Panama (3:33)
09. Hot For Teacher (Japanese bonus track) (4:45)
10. Why Can't This Be Love (3:46)
11. Dreams (4:54)
12. When It's Love (5:40)
13. Poundcake (5:21)
14. Right Now (5:23)
15. Can't Stop Lovin' You (4:09)
16. Humans Being (5:10)
17. Can't Get This Stuff No More (4:13)
18. Me Wise Magic (6:06)




百度链接:


游客,如果您要查看本帖隐藏内容请回复




本帖子中包含更多资源

您需要 登录 才可以下载或查看,没有帐号?邀请注册

x

评分

参与人数 1威望 +5 清风币 +5 魅力 +5 珍珠 +1 收起 理由
岚窗梅语 + 5 + 5 + 5 + 1 感谢分享,辛苦了!

查看全部评分

回复

使用道具 举报

 楼主| 发表于 2017-1-10 11:36:07 | 显示全部楼层
Exact Audio Copy V0.99 prebeta 5 from 4. May 2009

EAC extraction logfile from 16. June 2011, 0:57

VAN HALEN / GREATEST HITS (Japan WPCR-14063)

Used drive  : HL-DT-STDVDRAM GSA-H10A   Adapter: 3  ID: 0

Read mode               : Secure
Utilize accurate stream : Yes
Defeat audio cache      : Yes
Make use of C2 pointers : No

Read offset correction                      : 667
Overread into Lead-In and Lead-Out          : No
Fill up missing offset samples with silence : Yes
Delete leading and trailing silent blocks   : No
Null samples used in CRC calculations       : Yes
Used interface                              : Native Win32 interface for Win NT & 2000

Used output format              : Monkey's Audio Lossless Encoder
Selected bitrate                : High Lossless Compression
Quality                         : High
Add ID3 tag                     : Yes
Command line compressor         : C:\Archivos de programa\Monkey's Audio\MAC.exe


TOC of the extracted CD

     Track |   Start  |  Length  | Start sector | End sector
    ---------------------------------------------------------
        1  |  0:00.00 |  1:42.67 |         0    |     7716   
        2  |  1:42.67 |  3:48.05 |      7717    |    24821   
        3  |  5:30.72 |  3:37.08 |     24822    |    41104   
        4  |  9:08.05 |  3:08.25 |     41105    |    55229   
        5  | 12:16.30 |  3:34.55 |     55230    |    71334   
        6  | 15:51.10 |  3:29.35 |     71335    |    87044   
        7  | 19:20.45 |  4:03.60 |     87045    |   105329   
        8  | 23:24.30 |  3:32.72 |    105330    |   121301   
        9  | 26:57.27 |  4:44.43 |    121302    |   142644   
       10  | 31:41.70 |  3:46.22 |    142645    |   159616   
       11  | 35:28.17 |  4:54.00 |    159617    |   181666   
       12  | 40:22.17 |  5:39.50 |    181667    |   207141   
       13  | 46:01.67 |  5:21.28 |    207142    |   231244   
       14  | 51:23.20 |  5:22.47 |    231245    |   255441   
       15  | 56:45.67 |  4:08.65 |    255442    |   274106   
       16  | 60:54.57 |  5:09.65 |    274107    |   297346   
       17  | 66:04.47 |  4:12.58 |    297347    |   316304   
       18  | 70:17.30 |  6:06.30 |    316305    |   343784   


Range status and errors

Selected range

     Filename C:\Documents and Settings\BeppoMarx\Escritorio\Priest Live\VAN HALEN - GREATEST HITS (Japan WPCR-14063).wav

     Peak level 100.0 %
     Range quality 99.9 %
     Copy CRC A537F917
     Copy OK

No errors occurred


AccurateRip summary

Track  1  accurately ripped (confidence 4)  [ABE621CE]
Track  2  accurately ripped (confidence 4)  [09E88ED9]
Track  3  accurately ripped (confidence 4)  [A62A7028]
Track  4  accurately ripped (confidence 4)  [A45D0FD5]
Track  5  accurately ripped (confidence 4)  [F0BB7990]
Track  6  accurately ripped (confidence 4)  [4C8A9A3C]
Track  7  accurately ripped (confidence 4)  [8F17B5DF]
Track  8  accurately ripped (confidence 4)  [9847C287]
Track  9  accurately ripped (confidence 4)  [AE882A99]
Track 10  accurately ripped (confidence 4)  [C2B82CB3]
Track 11  accurately ripped (confidence 4)  [0912F59A]
Track 12  accurately ripped (confidence 4)  [8BB4E885]
Track 13  accurately ripped (confidence 4)  [2F9A9124]
Track 14  accurately ripped (confidence 4)  [EE7B9CA7]
Track 15  accurately ripped (confidence 4)  [3921E9DF]
Track 16  accurately ripped (confidence 4)  [EA27DF30]
Track 17  accurately ripped (confidence 4)  [BDE5BF27]
Track 18  accurately ripped (confidence 4)  [CDD21AD1]

All tracks accurately ripped

End of status report
回复 支持 反对

使用道具 举报

 楼主| 发表于 2017-1-10 11:36:22 | 显示全部楼层
REM GENRE "Hard Rock"
REM DATE 1996
REM DISCID ED11E712
REM COMMENT "ExactAudioCopy v0.99pb5"
PERFORMER "Van Halen"
TITLE "Van Halen - 1996-The Best Of, Volume 1"
FILE "Van Halen - 1996-The Best Of, Volume 1 (WPCR-14063).ape" WAVE
  TRACK 01 AUDIO
    TITLE "Eruption"
    PERFORMER "Van Halen"
    INDEX 01 00:00:00
  TRACK 02 AUDIO
    TITLE "Ain't Talkin' 'Bout Love"
    PERFORMER "Van Halen"
    INDEX 00 01:42:42
    INDEX 01 01:42:67
  TRACK 03 AUDIO
    TITLE "Runnin' With The Devil"
    PERFORMER "Van Halen"
    INDEX 00 05:30:20
    INDEX 01 05:30:72
  TRACK 04 AUDIO
    TITLE "Dance The Night Away"
    PERFORMER "Van Halen"
    INDEX 00 09:06:35
    INDEX 01 09:08:05
  TRACK 05 AUDIO
    TITLE "And The Cradle Will Rock..."
    PERFORMER "Van Halen"
    INDEX 00 12:14:65
    INDEX 01 12:16:30
  TRACK 06 AUDIO
    TITLE "Unchained"
    PERFORMER "Van Halen"
    INDEX 00 15:49:22
    INDEX 01 15:51:10
  TRACK 07 AUDIO
    TITLE "Jump"
    PERFORMER "Van Halen"
    INDEX 00 19:19:67
    INDEX 01 19:20:45
  TRACK 08 AUDIO
    TITLE "Panama"
    PERFORMER "Van Halen"
    INDEX 00 23:24:00
    INDEX 01 23:24:30
  TRACK 09 AUDIO
    TITLE "Hot For Teacher (Japanese bonus track)"
    PERFORMER "Van Halen"
    INDEX 00 26:55:50
    INDEX 01 26:57:27
  TRACK 10 AUDIO
    TITLE "Why Can't This Be Love"
    PERFORMER "Van Halen"
    INDEX 00 31:39:62
    INDEX 01 31:41:70
  TRACK 11 AUDIO
    TITLE "Dreams"
    PERFORMER "Van Halen"
    INDEX 00 35:26:65
    INDEX 01 35:28:17
  TRACK 12 AUDIO
    TITLE "When It's Love"
    PERFORMER "Van Halen"
    INDEX 00 40:20:55
    INDEX 01 40:22:17
  TRACK 13 AUDIO
    TITLE "Poundcake"
    PERFORMER "Van Halen"
    INDEX 00 46:01:37
    INDEX 01 46:01:67
  TRACK 14 AUDIO
    TITLE "Right Now"
    PERFORMER "Van Halen"
    INDEX 00 51:22:17
    INDEX 01 51:23:20
  TRACK 15 AUDIO
    TITLE "Can't Stop Lovin' You"
    PERFORMER "Van Halen"
    INDEX 00 56:45:15
    INDEX 01 56:45:67
  TRACK 16 AUDIO
    TITLE "Humans Being"
    PERFORMER "Van Halen"
    INDEX 00 60:53:47
    INDEX 01 60:54:57
  TRACK 17 AUDIO
    TITLE "Can't Get This Stuff No More"
    PERFORMER "Van Halen"
    INDEX 00 66:02:55
    INDEX 01 66:04:47
  TRACK 18 AUDIO
    TITLE "Me Wise Magic"
    PERFORMER "Van Halen"
    INDEX 00 70:14:67
    INDEX 01 70:17:30
回复 支持 反对

使用道具 举报

您需要登录后才可以回帖 登录 | 邀请注册

本版积分规则

Archiver|小黑屋|清风文摘 ( 津ICP备14006513号

GMT+8, 2017-3-29 23:01 , Processed in 0.261347 second(s), 28 queries .

Powered by Discuz! X3.2

© 2001-2013 Comsenz Inc.

快速回复 返回顶部 返回列表