清风文摘

 找回密码
 邀请注册
查看: 31|回复: 3

[专辑] Van Halen -1996- Best Of Volume I (Germany 9362-46474-2)[FLAC][百度]

[复制链接]
发表于 7 天前 | 显示全部楼层 |阅读模式
感谢原创!





Tracklist:
01. Eruption
02. Ain't Talkin' 'Bout Love
03. Runnin' With The Devil
04. Dance The Night Away
05. And The Cradle Will Rock...
06. Unchained
07. Jump
08. Panama
09. Why Can't This Be Love
10. Dreams
11. When It's Love
12. Poundcake
13. Right Now
14. Can't Stop Lovin' You
15. Humans Being
16. Can't Get This Stuff No More
17. Me Wise Magic




百度链接:


游客,如果您要查看本帖隐藏内容请回复






本帖子中包含更多资源

您需要 登录 才可以下载或查看,没有帐号?邀请注册

x

评分

参与人数 1威望 +5 清风币 +5 魅力 +5 珍珠 +1 收起 理由
岚窗梅语 + 5 + 5 + 5 + 1 感谢分享,辛苦了!

查看全部评分

回复

使用道具 举报

 楼主| 发表于 7 天前 | 显示全部楼层
Exact Audio Copy V1.0 beta 1 from 15. November 2010

EAC extraction logfile from 8. April 2011, 18:32

Van Halen / Best Of Volume I

Used drive  : Optiarc DVD-ROM DDU1675S   Adapter: 4  ID: 0

Read mode               : Secure
Utilize accurate stream : Yes
Defeat audio cache      : Yes
Make use of C2 pointers : No

Read offset correction                      : 6
Overread into Lead-In and Lead-Out          : No
Fill up missing offset samples with silence : Yes
Delete leading and trailing silent blocks   : No
Null samples used in CRC calculations       : Yes
Used interface                              : Installed external ASPI interface

Used output format              : User Defined Encoder
Selected bitrate                : 1024 kBit/s
Quality                         : High
Add ID3 tag                     : No
Command line compressor         : D:\Rec Install\lossless\lossless\Exact Audio Copy 0.9b4 + APE WV & FLAC Encoders\FLAC.EXE
Additional command line options : -8 -V %s


TOC of the extracted CD

     Track |   Start  |  Length  | Start sector | End sector
    ---------------------------------------------------------
        1  |  0:00.00 |  1:42.72 |         0    |     7721   
        2  |  1:42.72 |  3:48.00 |      7722    |    24821   
        3  |  5:30.72 |  3:36.00 |     24822    |    41021   
        4  |  9:06.72 |  3:05.60 |     41022    |    54956   
        5  | 12:12.57 |  3:33.53 |     54957    |    70984   
        6  | 15:46.35 |  3:29.10 |     70985    |    86669   
        7  | 19:15.45 |  4:01.45 |     86670    |   104789   
        8  | 23:17.15 |  3:31.60 |    104790    |   120674   
        9  | 26:49.00 |  3:47.47 |    120675    |   137746   
       10  | 30:36.47 |  4:51.58 |    137747    |   159629   
       11  | 35:28.30 |  5:39.00 |    159630    |   185054   
       12  | 41:07.30 |  5:21.40 |    185055    |   209169   
       13  | 46:28.70 |  5:21.60 |    209170    |   233304   
       14  | 51:50.55 |  4:08.17 |    233305    |   251921   
       15  | 55:58.72 |  5:09.03 |    251922    |   275099   
       16  | 61:08.00 |  5:15.22 |    275100    |   298746   
       17  | 66:23.22 |  6:06.33 |    298747    |   326229   


Range status and errors

Selected range

     Filename G:\# MY\Van Halen - Best Of Volume I (1996)\Van Halen - Best Of Volume I.wav

     Peak level 100.0 %
     Extraction speed 0.4 X
     Range quality 99.9 %
     Test CRC C4CBE3D9
     Copy CRC C4CBE3D9
     Copy OK

No errors occurred


AccurateRip summary

Track  1  accurately ripped (confidence 9)  [71F2ABC4]
Track  2  accurately ripped (confidence 9)  [029BCDDD]
Track  3  accurately ripped (confidence 9)  [8D6A2BFD]
Track  4  accurately ripped (confidence 9)  [699830F1]
Track  5  accurately ripped (confidence 9)  [A7762987]
Track  6  accurately ripped (confidence 9)  [2C7587FD]
Track  7  accurately ripped (confidence 9)  [61653768]
Track  8  accurately ripped (confidence 9)  [99C12E15]
Track  9  accurately ripped (confidence 9)  [97A0A906]
Track 10  accurately ripped (confidence 9)  [99225A9D]
Track 11  accurately ripped (confidence 9)  [4A04B5AD]
Track 12  accurately ripped (confidence 9)  [EBEEE42D]
Track 13  accurately ripped (confidence 8)  [B14DCB8F]
Track 14  accurately ripped (confidence 9)  [F4A291CA]
Track 15  accurately ripped (confidence 8)  [3B3925B8]
Track 16  accurately ripped (confidence 8)  [4E93A88F]
Track 17  accurately ripped (confidence 9)  [CA055899]

All tracks accurately ripped

End of status report
回复 支持 反对

使用道具 举报

 楼主| 发表于 7 天前 | 显示全部楼层
REM GENRE "Hard Rock"
REM DATE 1996
REM DISCID ED10FD11
REM COMMENT "ExactAudioCopy v1.0b1"
PERFORMER "Van Halen"
TITLE "Best Of Volume I"
FILE "Van Halen - Best Of Volume I.flac" WAVE
  TRACK 01 AUDIO
    TITLE "Eruption"
    PERFORMER "Van Halen"
    INDEX 01 00:00:00
  TRACK 02 AUDIO
    TITLE "Ain't Talkin' 'Bout Love"
    PERFORMER "Van Halen"
    INDEX 00 01:42:62
    INDEX 01 01:42:72
  TRACK 03 AUDIO
    TITLE "Runnin' With The Devil"
    PERFORMER "Van Halen"
    INDEX 00 05:30:07
    INDEX 01 05:30:72
  TRACK 04 AUDIO
    TITLE "Dance The Night Away"
    PERFORMER "Van Halen"
    INDEX 00 09:06:02
    INDEX 01 09:06:72
  TRACK 05 AUDIO
    TITLE "And The Cradle Will Rock..."
    PERFORMER "Van Halen"
    INDEX 00 12:12:32
    INDEX 01 12:12:57
  TRACK 06 AUDIO
    TITLE "Unchained"
    PERFORMER "Van Halen"
    INDEX 00 15:45:32
    INDEX 01 15:46:35
  TRACK 07 AUDIO
    TITLE "Jump"
    PERFORMER "Van Halen"
    INDEX 00 19:15:00
    INDEX 01 19:15:45
  TRACK 08 AUDIO
    TITLE "Panama"
    PERFORMER "Van Halen"
    INDEX 00 23:16:57
    INDEX 01 23:17:15
  TRACK 09 AUDIO
    TITLE "Why Can't This Be Love"
    PERFORMER "Van Halen"
    INDEX 00 26:48:37
    INDEX 01 26:49:00
  TRACK 10 AUDIO
    TITLE "Dreams"
    PERFORMER "Van Halen"
    INDEX 00 30:35:35
    INDEX 01 30:36:47
  TRACK 11 AUDIO
    TITLE "When It's Love"
    PERFORMER "Van Halen"
    INDEX 00 35:28:15
    INDEX 01 35:28:30
  TRACK 12 AUDIO
    TITLE "Poundcake"
    PERFORMER "Van Halen"
    INDEX 00 41:06:65
    INDEX 01 41:07:30
  TRACK 13 AUDIO
    TITLE "Right Now"
    PERFORMER "Van Halen"
    INDEX 00 46:27:12
    INDEX 01 46:28:70
  TRACK 14 AUDIO
    TITLE "Can't Stop Lovin' You"
    PERFORMER "Van Halen"
    INDEX 00 51:50:20
    INDEX 01 51:50:55
  TRACK 15 AUDIO
    TITLE "Humans Being"
    PERFORMER "Van Halen"
    INDEX 00 55:57:62
    INDEX 01 55:58:72
  TRACK 16 AUDIO
    TITLE "Can't Get This Stuff No More"
    PERFORMER "Van Halen"
    INDEX 00 61:06:47
    INDEX 01 61:08:00
  TRACK 17 AUDIO
    TITLE "Me Wise Magic"
    PERFORMER "Van Halen"
    INDEX 00 66:22:30
    INDEX 01 66:23:22
回复 支持 反对

使用道具 举报

发表于 3 天前 | 显示全部楼层
范海伦的音乐没有听过,下个精选听听
回复 支持 反对

使用道具 举报

您需要登录后才可以回帖 登录 | 邀请注册

本版积分规则

Archiver|小黑屋|清风文摘 ( 津ICP备14006513号

GMT+8, 2017-1-17 20:51 , Processed in 0.371155 second(s), 25 queries .

Powered by Discuz! X3.2

© 2001-2013 Comsenz Inc.

快速回复 返回顶部 返回列表