清风文摘

 找回密码
 邀请注册
查看: 56|回复: 2

[专辑] Van Halen -1995- Balance (Germany 9362-45760-2)[FLAC][百度]

[复制链接]
发表于 2017-1-10 11:31:39 | 显示全部楼层 |阅读模式

感谢原创!





Tracklist:
01. The Seventh Seal
02. Can't Stop Lovin' You
03. Don't Tell Me (What Love Can Do)
04. Amsterdam
05. Big Fat Money
06. Strung Out
07. Not Enough
08. Aftershock
09. Doin' Time
10. Baluchitherium
11. Take Me Back (Deja Vu)
12. Feelin'




百度链接:


游客,如果您要查看本帖隐藏内容请回复




本帖子中包含更多资源

您需要 登录 才可以下载或查看,没有帐号?邀请注册

x

评分

参与人数 1威望 +5 清风币 +5 魅力 +5 珍珠 +1 收起 理由
岚窗梅语 + 5 + 5 + 5 + 1 感谢分享,辛苦了!

查看全部评分

回复

使用道具 举报

 楼主| 发表于 2017-1-10 11:31:56 | 显示全部楼层
Exact Audio Copy V1.0 beta 1 from 15. November 2010

EAC extraction logfile from 9. November 2011, 23:00

Van Halen / Balance

Used drive  : Optiarc DVD-ROM DDU1675S   Adapter: 4  ID: 0

Read mode               : Secure
Utilize accurate stream : Yes
Defeat audio cache      : Yes
Make use of C2 pointers : No

Read offset correction                      : 6
Overread into Lead-In and Lead-Out          : No
Fill up missing offset samples with silence : Yes
Delete leading and trailing silent blocks   : No
Null samples used in CRC calculations       : Yes
Used interface                              : Installed external ASPI interface

Used output format              : User Defined Encoder
Selected bitrate                : 128 kBit/s
Quality                         : High
Add ID3 tag                     : No
Command line compressor         : D:\Rec Install\lossless\lossless\Exact Audio Copy 0.9b4 + APE WV & FLAC Encoders\FLAC.EXE
Additional command line options : -8 -V %s


TOC of the extracted CD

     Track |   Start  |  Length  | Start sector | End sector
    ---------------------------------------------------------
        1  |  0:00.00 |  5:18.65 |         0    |    23914   
        2  |  5:18.65 |  4:07.37 |     23915    |    42476   
        3  |  9:26.27 |  5:56.05 |     42477    |    69181   
        4  | 15:22.32 |  4:45.05 |     69182    |    90561   
        5  | 20:07.37 |  3:57.23 |     90562    |   108359   
        6  | 24:04.60 |  1:28.67 |    108360    |   115026   
        7  | 25:33.52 |  5:12.43 |    115027    |   138469   
        8  | 30:46.20 |  5:28.67 |    138470    |   163136   
        9  | 36:15.12 |  1:41.43 |    163137    |   170754   
       10  | 37:56.55 |  4:04.55 |    170755    |   189109   
       11  | 42:01.35 |  4:42.47 |    189110    |   210306   
       12  | 46:44.07 |  6:34.48 |    210307    |   239904   


Range status and errors

Selected range

     Filename G:\Torrent\# MY\Van Halen - Discography (1978-2004)\Albums (Original)\1995 - Balance\Van Halen - Balance.wav

     Peak level 100.0 %
     Extraction speed 1.0 X
     Range quality 100.0 %
     Test CRC 2502F1C9
     Copy CRC 2502F1C9
     Copy OK

No errors occurred


AccurateRip summary

Track  1  accurately ripped (confidence 15)  [51014B7D]
Track  2  accurately ripped (confidence 15)  [82DDE286]
Track  3  accurately ripped (confidence 15)  [2D87E6B5]
Track  4  accurately ripped (confidence 15)  [1BCD5F76]
Track  5  accurately ripped (confidence 14)  [0DBCC3D4]
Track  6  accurately ripped (confidence 15)  [5A2A67A6]
Track  7  accurately ripped (confidence 15)  [28DB1C78]
Track  8  accurately ripped (confidence 14)  [DD2F098C]
Track  9  accurately ripped (confidence 14)  [13A8B558]
Track 10  accurately ripped (confidence 15)  [14C034AA]
Track 11  accurately ripped (confidence 14)  [569306D9]
Track 12  accurately ripped (confidence 14)  [231B7614]

All tracks accurately ripped

End of status report
回复 支持 反对

使用道具 举报

 楼主| 发表于 2017-1-10 11:32:09 | 显示全部楼层
REM GENRE "Hard Rock"
REM DATE 1995
REM DISCID A70C7E0C
REM COMMENT "ExactAudioCopy v1.0b1"
PERFORMER "Van Halen"
TITLE "Balance"
FILE "Van Halen - Balance.flac" WAVE
  TRACK 01 AUDIO
    TITLE "The Seventh Seal"
    PERFORMER "Van Halen"
    INDEX 01 00:00:00
  TRACK 02 AUDIO
    TITLE "Can't Stop Lovin' You"
    PERFORMER "Van Halen"
    INDEX 01 05:18:65
  TRACK 03 AUDIO
    TITLE "Don't Tell Me (What Love Can Do)"
    PERFORMER "Van Halen"
    INDEX 01 09:26:27
  TRACK 04 AUDIO
    TITLE "Amsterdam"
    PERFORMER "Van Halen"
    INDEX 01 15:22:32
  TRACK 05 AUDIO
    TITLE "Big Fat Money"
    PERFORMER "Van Halen"
    INDEX 00 20:06:25
    INDEX 01 20:07:37
  TRACK 06 AUDIO
    TITLE "Strung Out"
    PERFORMER "Van Halen"
    INDEX 01 24:04:60
  TRACK 07 AUDIO
    TITLE "Not Enough"
    PERFORMER "Van Halen"
    INDEX 01 25:33:52
  TRACK 08 AUDIO
    TITLE "Aftershock"
    PERFORMER "Van Halen"
    INDEX 01 30:46:20
  TRACK 09 AUDIO
    TITLE "Doin' Time"
    PERFORMER "Van Halen"
    INDEX 01 36:15:12
  TRACK 10 AUDIO
    TITLE "Baluchitherium"
    PERFORMER "Van Halen"
    INDEX 01 37:56:55
  TRACK 11 AUDIO
    TITLE "Take Me Back (Deja Vu)"
    PERFORMER "Van Halen"
    INDEX 01 42:01:35
  TRACK 12 AUDIO
    TITLE "Feelin'"
    PERFORMER "Van Halen"
    INDEX 01 46:44:07
回复 支持 反对

使用道具 举报

您需要登录后才可以回帖 登录 | 邀请注册

本版积分规则

Archiver|小黑屋|清风文摘 ( 津ICP备14006513号

GMT+8, 2017-2-26 13:31 , Processed in 0.265314 second(s), 25 queries .

Powered by Discuz! X3.2

© 2001-2013 Comsenz Inc.

快速回复 返回顶部 返回列表