清风文摘

 找回密码
 邀请注册
查看: 20|回复: 4

[专辑] Van Halen -1993- Live - Right Here, Right Now (U.S.A. 9 45198-2)[FLAC][百度]

[复制链接]
发表于 7 天前 | 显示全部楼层 |阅读模式
感谢原创!






Tracklist:
CD-1
01. Poundcake
02. Judgement Day
03. When It's Love
04. Spanked
05. Ain't Talkin' 'Bout Love
06. In 'n' Out
07. Dreams
08. Man On A Mission
09. Ultra Bass
10. Pleasure Dome / Drum Solo
11. Panama
12. Love Walks In
13. Runaround

CD-2
01. Right Now
02. One Way To Rock
03. Why Can't This Be Love
04. Give To Live
05. Finish What Ya Started
06. Best Of Both Worlds
07. 316
08. You Really Got Me / Cabo Wabo
09. Won't Get Fooled Again
10. Jump
11. Top Of The World





百度链接:


游客,如果您要查看本帖隐藏内容请回复




本帖子中包含更多资源

您需要 登录 才可以下载或查看,没有帐号?邀请注册

x

评分

参与人数 1威望 +5 清风币 +5 魅力 +5 珍珠 +1 收起 理由
岚窗梅语 + 5 + 5 + 5 + 1 感谢分享,辛苦了!

查看全部评分

回复

使用道具 举报

 楼主| 发表于 7 天前 | 显示全部楼层
Exact Audio Copy V1.0 beta 1 from 15. November 2010

EAC extraction logfile from 6. November 2011, 14:17

Van Halen / Live: Right Here, Right Now

Used drive  : ASUS    DRW-24B1ST   Adapter: 5  ID: 0

Read mode               : Secure
Utilize accurate stream : Yes
Defeat audio cache      : Yes
Make use of C2 pointers : No

Read offset correction                      : 6
Overread into Lead-In and Lead-Out          : No
Fill up missing offset samples with silence : Yes
Delete leading and trailing silent blocks   : No
Null samples used in CRC calculations       : Yes
Used interface                              : Installed external ASPI interface

Used output format              : User Defined Encoder
Selected bitrate                : 128 kBit/s
Quality                         : High
Add ID3 tag                     : No
Command line compressor         : D:\Rec Install\lossless\lossless\Exact Audio Copy 0.9b4 + APE WV & FLAC Encoders\FLAC.EXE
Additional command line options : -8 -V %s


TOC of the extracted CD

     Track |   Start  |  Length  | Start sector | End sector
    ---------------------------------------------------------
        1  |  0:00.32 |  5:28.40 |        32    |    24671   
        2  |  5:28.72 |  4:52.08 |     24672    |    46579   
        3  | 10:21.05 |  5:22.27 |     46580    |    70756   
        4  | 15:43.32 |  5:08.68 |     70757    |    93924   
        5  | 20:52.25 |  4:37.62 |     93925    |   114761   
        6  | 25:30.12 |  6:20.73 |    114762    |   143334   
        7  | 31:51.10 |  4:49.20 |    143335    |   165029   
        8  | 36:40.30 |  4:49.72 |    165030    |   186776   
        9  | 41:30.27 |  5:15.08 |    186777    |   210409   
       10  | 46:45.35 |  9:38.17 |    210410    |   253776   
       11  | 56:23.52 |  6:39.03 |    253777    |   283704   
       12  | 63:02.55 |  5:14.02 |    283705    |   307256   
       13  | 68:16.57 |  5:21.55 |    307257    |   331386   


Range status and errors

Selected range

     Filename G:\Torrent\# MY\Van Halen - Discography (1978-2004)\Live Albums\1993 - Live - Right Here, Right Now\CD-1\Van Halen - Live - Right Here, Right Now (CD-1).wav

     Peak level 100.0 %
     Extraction speed 0.4 X
     Range quality 99.9 %
     Test CRC 522CCAE5
     Copy CRC 522CCAE5
     Copy OK

No errors occurred


AccurateRip summary

Track  1  cannot be verified as accurate (confidence 8)  [ADC1FC96], AccurateRip returned [91E7ACD0]
Track  2  cannot be verified as accurate (confidence 8)  [5A74491A], AccurateRip returned [73EC02C6]
Track  3  cannot be verified as accurate (confidence 8)  [0618CAD5], AccurateRip returned [21899537]
Track  4  cannot be verified as accurate (confidence 8)  [82004D2D], AccurateRip returned [78F32D7C]
Track  5  cannot be verified as accurate (confidence 8)  [CD194B27], AccurateRip returned [B8FE7D8C]
Track  6  cannot be verified as accurate (confidence 8)  [C80C366D], AccurateRip returned [715167DA]
Track  7  cannot be verified as accurate (confidence 8)  [9765749C], AccurateRip returned [B9BB806E]
Track  8  cannot be verified as accurate (confidence 8)  [966013A1], AccurateRip returned [EF82D517]
Track  9  cannot be verified as accurate (confidence 8)  [6F2EBADA], AccurateRip returned [5923DE09]
Track 10  cannot be verified as accurate (confidence 8)  [3091ED81], AccurateRip returned [DEB32B2E]
Track 11  cannot be verified as accurate (confidence 8)  [0742181C], AccurateRip returned [E85CC817]
Track 12  cannot be verified as accurate (confidence 8)  [1C0BB751], AccurateRip returned [7187CCD5]
Track 13  cannot be verified as accurate (confidence 8)  [F6AD217C], AccurateRip returned [86184B04]

No tracks could be verified as accurate
You may have a different pressing from the one(s) in the database

End of status report
回复 支持 反对

使用道具 举报

 楼主| 发表于 7 天前 | 显示全部楼层
REM GENRE "Hard Rock"
REM DATE 1993
REM DISCID B011420D
REM COMMENT "ExactAudioCopy v1.0b1"
PERFORMER "Van Halen"
TITLE "Live: Right Here, Right Now"
FILE "Van Halen - Live - Right Here, Right Now (CD-1).flac" WAVE
  TRACK 01 AUDIO
    TITLE "Poundcake"
    PERFORMER "Van Halen"
    INDEX 00 00:00:00
    INDEX 01 00:00:32
  TRACK 02 AUDIO
    TITLE "Judgement Day"
    PERFORMER "Van Halen"
    INDEX 01 05:28:72
  TRACK 03 AUDIO
    TITLE "When It's Love"
    PERFORMER "Van Halen"
    INDEX 01 10:21:05
  TRACK 04 AUDIO
    TITLE "Spanked"
    PERFORMER "Van Halen"
    INDEX 01 15:43:32
  TRACK 05 AUDIO
    TITLE "Ain't Talkin' 'Bout Love"
    PERFORMER "Van Halen"
    INDEX 01 20:52:25
  TRACK 06 AUDIO
    TITLE "In 'n' Out"
    PERFORMER "Van Halen"
    INDEX 01 25:30:12
  TRACK 07 AUDIO
    TITLE "Dreams"
    PERFORMER "Van Halen"
    INDEX 01 31:51:10
  TRACK 08 AUDIO
    TITLE "Man On A Mission"
    PERFORMER "Van Halen"
    INDEX 01 36:40:30
  TRACK 09 AUDIO
    TITLE "Ultra Bass"
    PERFORMER "Van Halen"
    INDEX 01 41:30:27
  TRACK 10 AUDIO
    TITLE "Pleasure Dome / Drum Solo"
    PERFORMER "Van Halen"
    INDEX 01 46:45:35
  TRACK 11 AUDIO
    TITLE "Panama"
    PERFORMER "Van Halen"
    INDEX 01 56:23:52
  TRACK 12 AUDIO
    TITLE "Love Walks In"
    PERFORMER "Van Halen"
    INDEX 01 63:02:55
  TRACK 13 AUDIO
    TITLE "Runaround"
    PERFORMER "Van Halen"
    INDEX 01 68:16:57
回复 支持 反对

使用道具 举报

 楼主| 发表于 7 天前 | 显示全部楼层
Exact Audio Copy V1.0 beta 1 from 15. November 2010

EAC extraction logfile from 6. November 2011, 15:08

Van Halen / Live: Right Here, Right Now

Used drive  : ASUS    DRW-24B1ST   Adapter: 5  ID: 0

Read mode               : Secure
Utilize accurate stream : Yes
Defeat audio cache      : Yes
Make use of C2 pointers : No

Read offset correction                      : 6
Overread into Lead-In and Lead-Out          : No
Fill up missing offset samples with silence : Yes
Delete leading and trailing silent blocks   : No
Null samples used in CRC calculations       : Yes
Used interface                              : Installed external ASPI interface

Used output format              : User Defined Encoder
Selected bitrate                : 128 kBit/s
Quality                         : High
Add ID3 tag                     : No
Command line compressor         : D:\Rec Install\lossless\lossless\Exact Audio Copy 0.9b4 + APE WV & FLAC Encoders\FLAC.EXE
Additional command line options : -8 -V %s


TOC of the extracted CD

     Track |   Start  |  Length  | Start sector | End sector
    ---------------------------------------------------------
        1  |  0:00.32 |  6:13.30 |        32    |    28036   
        2  |  6:13.62 |  4:58.50 |     28037    |    50436   
        3  | 11:12.37 |  5:22.05 |     50437    |    74591   
        4  | 16:34.42 |  5:39.43 |     74592    |   100059   
        5  | 22:14.10 |  5:50.52 |    100060    |   126361   
        6  | 28:04.62 |  5:00.63 |    126362    |   148924   
        7  | 33:05.50 | 11:37.40 |    148925    |   201239   
        8  | 44:43.15 |  7:58.27 |    201240    |   237116   
        9  | 52:41.42 |  5:41.63 |    237117    |   262754   
       10  | 58:23.30 |  4:26.65 |    262755    |   282769   
       11  | 62:50.20 |  4:59.12 |    282770    |   305206   


Range status and errors

Selected range

     Filename G:\Torrent\# MY\Van Halen - Discography (1978-2004)\Live Albums\1993 - Live - Right Here, Right Now\CD-2\Van Halen - Live - Right Here, Right Now (CD-2).wav

     Peak level 100.0 %
     Extraction speed 0.2 X
     Range quality 99.9 %
     Test CRC A8336530
     Copy CRC A8336530
     Copy OK

No errors occurred


AccurateRip summary

Track  1  cannot be verified as accurate (confidence 99)  [4F8EEDD9], AccurateRip returned [6C0C3151]
Track  2  cannot be verified as accurate (confidence 101)  [4993872E], AccurateRip returned [D140CCA8]
Track  3  cannot be verified as accurate (confidence 100)  [7D1D7C2D], AccurateRip returned [BE4851EF]
Track  4  cannot be verified as accurate (confidence 99)  [81251A7B], AccurateRip returned [621C6B55]
Track  5  cannot be verified as accurate (confidence 98)  [0D21A83F], AccurateRip returned [F7FA2680]
Track  6  cannot be verified as accurate (confidence 99)  [77D129E0], AccurateRip returned [E31315A1]
Track  7  cannot be verified as accurate (confidence 100)  [EFD15807], AccurateRip returned [2ECDAB05]
Track  8  cannot be verified as accurate (confidence 97)  [84292242], AccurateRip returned [9037A1C7]
Track  9  cannot be verified as accurate (confidence 94)  [899ADDFF], AccurateRip returned [D1B4C6E9]
Track 10  cannot be verified as accurate (confidence 97)  [E2E08A40], AccurateRip returned [8F1C9ED2]
Track 11  cannot be verified as accurate (confidence 89)  [A23D84BE], AccurateRip returned [50D24B09]

No tracks could be verified as accurate
You may have a different pressing from the one(s) in the database

End of status report
回复 支持 反对

使用道具 举报

 楼主| 发表于 7 天前 | 显示全部楼层
REM GENRE "Hard Rock"
REM DATE 1993
REM DISCID B70FE50B
REM COMMENT "ExactAudioCopy v1.0b1"
PERFORMER "Van Halen"
TITLE "Live: Right Here, Right Now"
FILE "Van Halen - Live - Right Here, Right Now (CD-2).flac" WAVE
  TRACK 01 AUDIO
    TITLE "Right Now"
    PERFORMER "Van Halen"
    INDEX 00 00:00:00
    INDEX 01 00:00:32
  TRACK 02 AUDIO
    TITLE "One Way To Rock"
    PERFORMER "Van Halen"
    INDEX 01 06:13:62
  TRACK 03 AUDIO
    TITLE "Why Can't This Be Love"
    PERFORMER "Van Halen"
    INDEX 01 11:12:37
  TRACK 04 AUDIO
    TITLE "Give To Live"
    PERFORMER "Van Halen"
    INDEX 01 16:34:42
  TRACK 05 AUDIO
    TITLE "Finish What Ya Started"
    PERFORMER "Van Halen"
    INDEX 01 22:14:10
  TRACK 06 AUDIO
    TITLE "Best Of Both Worlds"
    PERFORMER "Van Halen"
    INDEX 01 28:04:62
  TRACK 07 AUDIO
    TITLE "316"
    PERFORMER "Van Halen"
    INDEX 01 33:05:50
  TRACK 08 AUDIO
    TITLE "You Really Got Me / Cabo Wabo"
    PERFORMER "Van Halen"
    INDEX 01 44:43:15
  TRACK 09 AUDIO
    TITLE "Won't Get Fooled Again"
    PERFORMER "Van Halen"
    INDEX 01 52:41:42
  TRACK 10 AUDIO
    TITLE "Jump"
    PERFORMER "Van Halen"
    INDEX 01 58:23:30
  TRACK 11 AUDIO
    TITLE "Top Of The World"
    PERFORMER "Van Halen"
    INDEX 01 62:50:20
回复 支持 反对

使用道具 举报

您需要登录后才可以回帖 登录 | 邀请注册

本版积分规则

Archiver|小黑屋|清风文摘 ( 津ICP备14006513号

GMT+8, 2017-1-17 18:54 , Processed in 0.298899 second(s), 27 queries .

Powered by Discuz! X3.2

© 2001-2013 Comsenz Inc.

快速回复 返回顶部 返回列表