清风文摘

 找回密码
 邀请注册
查看: 84|回复: 2

[专辑] Van Halen -1991- For Unlawful Carnal Knowledge (Germany 7599 26594-2)[FLAC][...

[复制链接]
发表于 2017-1-10 11:26:39 | 显示全部楼层 |阅读模式

感谢原创!





Tracklist:
01. Poundcake
02. Judgement Day
03. Spanked
04. Runaround
05. Pleasure Dome
06. In 'n' Out
07. Man On A Mission
08. The Dream Is Over
09. Right Now
10. 316
11. Top Of The World





百度链接:


游客,如果您要查看本帖隐藏内容请回复




本帖子中包含更多资源

您需要 登录 才可以下载或查看,没有帐号?邀请注册

x

评分

参与人数 1威望 +5 清风币 +5 魅力 +5 珍珠 +1 收起 理由
岚窗梅语 + 5 + 5 + 5 + 1 感谢分享,辛苦了!

查看全部评分

回复

使用道具 举报

 楼主| 发表于 2017-1-10 11:26:54 | 显示全部楼层
Exact Audio Copy V1.0 beta 1 from 15. November 2010

EAC extraction logfile from 9. November 2011, 21:41

Van Halen / For Unlawful Carnal Knowledge

Used drive  : ASUS    DRW-24B1ST   Adapter: 5  ID: 0

Read mode               : Secure
Utilize accurate stream : Yes
Defeat audio cache      : Yes
Make use of C2 pointers : No

Read offset correction                      : 6
Overread into Lead-In and Lead-Out          : No
Fill up missing offset samples with silence : Yes
Delete leading and trailing silent blocks   : No
Null samples used in CRC calculations       : Yes
Used interface                              : Installed external ASPI interface

Used output format              : User Defined Encoder
Selected bitrate                : 128 kBit/s
Quality                         : High
Add ID3 tag                     : No
Command line compressor         : D:\Rec Install\lossless\lossless\Exact Audio Copy 0.9b4 + APE WV & FLAC Encoders\FLAC.EXE
Additional command line options : -8 -V %s


TOC of the extracted CD

     Track |   Start  |  Length  | Start sector | End sector
    ---------------------------------------------------------
        1  |  0:00.00 |  5:21.62 |         0    |    24136   
        2  |  5:21.62 |  4:38.50 |     24137    |    45036   
        3  | 10:00.37 |  4:53.13 |     45037    |    67024   
        4  | 14:53.50 |  4:20.52 |     67025    |    86576   
        5  | 19:14.27 |  6:58.18 |     86577    |   117944   
        6  | 26:12.45 |  6:04.67 |    117945    |   145311   
        7  | 32:17.37 |  5:03.55 |    145312    |   168091   
        8  | 37:21.17 |  3:59.40 |    168092    |   186056   
        9  | 41:20.57 |  5:21.58 |    186057    |   210189   
       10  | 46:42.40 |  1:29.47 |    210190    |   216911   
       11  | 48:12.12 |  3:54.20 |    216912    |   234481   


Range status and errors

Selected range

     Filename G:\Torrent\# MY\Van Halen - Discography (1978-2004)\Albums (Original)\1991 - For Unlawful Carnal Knowledge\Van Halen - For Unlawful Carnal Knowledge.wav

     Peak level 97.2 %
     Extraction speed 0.4 X
     Range quality 99.9 %
     Test CRC E41555CD
     Copy CRC E41555CD
     Copy OK

No errors occurred


AccurateRip summary

Track  1  accurately ripped (confidence 12)  [AADEFE47]
Track  2  accurately ripped (confidence 12)  [059E37C4]
Track  3  accurately ripped (confidence 12)  [FFB00A00]
Track  4  accurately ripped (confidence 12)  [1D051050]
Track  5  accurately ripped (confidence 11)  [7EE8B19F]
Track  6  accurately ripped (confidence 11)  [CFC9B71B]
Track  7  accurately ripped (confidence 12)  [E21FBF86]
Track  8  accurately ripped (confidence 12)  [9BDB0D2B]
Track  9  accurately ripped (confidence 12)  [C61AA81B]
Track 10  accurately ripped (confidence 11)  [3B12C506]
Track 11  accurately ripped (confidence 12)  [FA8DF1F4]

All tracks accurately ripped

End of status report
回复 支持 反对

使用道具 举报

 楼主| 发表于 2017-1-10 11:27:07 | 显示全部楼层
REM GENRE "Hard Rock"
REM DATE 1991
REM DISCID 9C0C360B
REM COMMENT "ExactAudioCopy v1.0b1"
PERFORMER "Van Halen"
TITLE "For Unlawful Carnal Knowledge"
FILE "Van Halen - For Unlawful Carnal Knowledge.flac" WAVE
  TRACK 01 AUDIO
    TITLE "Poundcake"
    PERFORMER "Van Halen"
    INDEX 01 00:00:00
  TRACK 02 AUDIO
    TITLE "Judgement Day"
    PERFORMER "Van Halen"
    INDEX 00 05:20:25
    INDEX 01 05:21:62
  TRACK 03 AUDIO
    TITLE "Spanked"
    PERFORMER "Van Halen"
    INDEX 00 09:59:35
    INDEX 01 10:00:37
  TRACK 04 AUDIO
    TITLE "Runaround"
    PERFORMER "Van Halen"
    INDEX 00 14:50:70
    INDEX 01 14:53:50
  TRACK 05 AUDIO
    TITLE "Pleasure Dome"
    PERFORMER "Van Halen"
    INDEX 00 19:11:57
    INDEX 01 19:14:27
  TRACK 06 AUDIO
    TITLE "In 'n' Out"
    PERFORMER "Van Halen"
    INDEX 00 26:10:47
    INDEX 01 26:12:45
  TRACK 07 AUDIO
    TITLE "Man On A Mission"
    PERFORMER "Van Halen"
    INDEX 00 32:17:00
    INDEX 01 32:17:37
  TRACK 08 AUDIO
    TITLE "The Dream Is Over"
    PERFORMER "Van Halen"
    INDEX 00 37:19:57
    INDEX 01 37:21:17
  TRACK 09 AUDIO
    TITLE "Right Now"
    PERFORMER "Van Halen"
    INDEX 00 41:17:55
    INDEX 01 41:20:57
  TRACK 10 AUDIO
    TITLE "316"
    PERFORMER "Van Halen"
    INDEX 00 46:41:42
    INDEX 01 46:42:40
  TRACK 11 AUDIO
    TITLE "Top Of The World"
    PERFORMER "Van Halen"
    INDEX 00 48:10:72
    INDEX 01 48:12:12
回复 支持 反对

使用道具 举报

您需要登录后才可以回帖 登录 | 邀请注册

本版积分规则

Archiver|小黑屋|清风文摘 ( 津ICP备14006513号

GMT+8, 2017-3-28 22:04 , Processed in 0.249291 second(s), 25 queries .

Powered by Discuz! X3.2

© 2001-2013 Comsenz Inc.

快速回复 返回顶部 返回列表