清风文摘

 找回密码
 邀请注册
查看: 188|回复: 10

[民族] 普罗音像:赵季平《电影音乐》引进版Q104[WAV整轨/百度]带自播,慎进

[复制链接]
发表于 2017-1-5 22:12:12 | 显示全部楼层 |阅读模式




专辑英文: Electric Shadows
专辑中文: 电影音乐
作曲: 赵季平
指挥:胡炳旭
演奏:中国交响乐团
演唱:中国交响合唱团
版权提供:德国TELDEC唱片公司
出版发行:中新音像出版社
经销商:中国图书进出口(集团)总公司
唱片公司:普罗音像
发行时间: 2000年
发行地区:内地
内圈码:POLO PMB-10005-2
IFPI码:Q104
CD编号:POLO PMB-10005-2
音乐类型:电影音乐

专辑介绍:
    作曲:赵季平  
    《电影》是德国华纳属下的TELDEC公司与中国作曲家的首次合作,这也是西方大型唱片公司使用最新技术在中国录制的首张中国电影音乐专辑。收入的十三段音乐选自赵季平为《活着》、《太阳鸟》、《菊豆》、《霸王别姬》、《炮打双灯》、《大红灯笼高高挂》六部电影创作的配乐,由胡炳旭指挥的中国交响乐团和中国交响乐团合唱队担任演奏及声乐部演唱。音乐中的中国传统乐器独奏也皆由中国著名音乐家如张维良、杨丽萍等担任。
    这张CD由德国工程师在北京电影制片厂录音棚录制,音色平衡,音场辽阔,在不影响乐器远近位置和空间感的同时,将乐器的质感高度呈现。尤其是音乐中大量的中国吹奏乐器,如唢呐、埙、箫、笛子等均表现出十分优异的空气感。而弦乐部的音色亦相当幼滑,中高频的延伸相当漂亮!TELDEC公司对这张唱片的制作可以打满分,不仅唱片包装的美术设计采用成本较高的压膜硬纸板折叠式全彩印刷,外观美仑美奂;录音以严格的古典音乐唱片音质标准衡量也属于上品。由于大部份曲目都从细小微弱的音响开始演进,信噪比不高的音响有三分之一的时间将听不到清楚的音乐,扭大音量当然会适当改善一点,但乐曲突如其来的动态对音箱的杀伤力也随着音量加大而向临界点逼近。
    唱片中选录的这些乐段,多为电影中的场景音乐片段。正是这些“场景音乐”,以不同的音乐演绎方式和丰富多彩的音乐色调体现出了作品的深邃意境。如《活着》 中的的第一段音乐,其中板胡、二胡的独奏把我们带进影片里那种悠远质朴的氛围和境界中。《太阳鸟》 中的巴乌、笙与合成器,编织出一片美丽而迷幻的朦胧景致。《菊豆》 中开始便是传统乐器埙的声音,如泣如诉,后加上童声的演唱,故事也便由这些音乐娓娓道来。《大红灯笼高高挂》 选录的音乐,始终离不开女声声部和带京剧的音腔。《霸王别姬》 更是“京味”十足,首段音乐便是京剧锣鼓,后面更由京胡、琵琶引出悠婉悲壮的大乐队的交响。整张唱片中,各个乐段的录音质量比较整齐,总体水平很高,既有大动态,又不失细微真实的音响。
    赵季平是随着张艺谋、陈凯歌的电影一起扬名世界的。其中他为影片《霸王别姬》等著名电影创作的配乐,由于吸收了中国传统音乐(如京剧艺术的形式)的精华,并将中国乐器与西洋乐器有机结合,为西方人了解中国艺术文化开辟了神奇的欣赏领域。不过,从制作上看,这张唱片是似乎是推介给国外人欣赏的,除封面印有“电影”两个中文字外,所有文字都是英文。看来它主要不是“打入中国市场”的,而是面向国外市场的。从满足西方人的猎奇心理来看,这张唱片很可能跻身于热销的影视录音专辑之列。但事实是,中国的乐迷根本毋需经验积累就能进入角色情境。赵季平善于挖掘悲剧艺术的深度,他渲染天地肃杀,苍凉寂寥的气氛最拿手,慢板乐章经过他手中就像孕育着中国千百年沉淀下来的一切痛苦根源,一层层缓缓展开放大在你面前,不知不觉让人泪流模糊,又说不出为什么。中国人要听中国的音乐,也只有中国的音乐最能打动中国人!
    令西方人的耳朵着魔的六部国际级数的中国影音乐 第一位进入世界一线古典唱片品牌的中国音乐家 纯粹的中国音乐风格, 配合西方精锐的录音效果 一张非凡的音乐专辑(介绍来自网络)。

CD曲目:
1.富贵与家珍(活着)
2.似水流年(活着)
3.太阳岛(太阳岛)
4.孔雀精灵(太阳岛)
5.菊豆(菊豆)
6.舞台生涯手足情(霸王别姬)
7.落幕(霸王别姬)
8.春枝和牛宝的爱情(炮打双灯)
9.黄河岸边的情場(炮打双灯)
10.序曲(大红灯笼高高挂)
11.女人(颂莲与梅姗)(大红灯笼高高挂)
12.宿命(大红灯笼高高挂)
13.轮回(大红灯笼高高挂)


游客,如果您要查看本帖隐藏内容请回复

声明:禁止转帖,转发传播,刻录销售,转卖资源等商业行为。请下载于24小时后删除,谢谢合作!

本帖子中包含更多资源

您需要 登录 才可以下载或查看,没有帐号?邀请注册

x

评分

参与人数 1威望 +10 清风币 +10 魅力 +10 钻石 +1 收起 理由
咩小七 + 10 + 10 + 10 + 1 感谢分享,辛苦了!

查看全部评分

回复

使用道具 举报

 楼主| 发表于 2017-1-5 22:12:27 | 显示全部楼层
Exact Audio Copy V1.3 from 2. September 2016

EAC 抓取日志文件从5. 一月 2017, 13:54

趙季平 Zhao Jiping / 電影音乐 Electric Shadows

使用驱动器  :PIONEER DVD-RW  DVR-219L   Adapter: 1  ID: 0

读取模式      : 可靠Secure
使用精确流     : 是
清空音频缓存    : 是
使用 C2 指示器 : 否

读取偏移校正:               : 6
读取 Lead-In 和 Lead-Out : 否
用静音填充抓取中丢失偏移的采样       : 是
去除首尾静音块               : 否
在CRC 计算中使用了空样本       : 是
已用接口                  : 已安装外部 ASPI 接口

所用输出模式: : 内部 WAV 函数
样本格式    : 44.100 Hz; 16 Bit; 立体声


已抓取 CD 的 TOC

     音轨 |    起始    |    长度    |  起始扇区  |  结束扇区  
    --------------------------------------------
      1 |  0:00.00 |  2:56.30 |      0 |  13229
      2 |  2:56.30 |  5:05.55 |  13230 |  36159
      3 |  8:02.10 |  4:55.20 |  36160 |  58304
      4 | 12:57.30 |  9:24.32 |  58305 | 100636
      5 | 22:21.62 |  7:45.48 | 100637 | 135559
      6 | 30:07.35 |  3:01.22 | 135560 | 149156
      7 | 33:08.57 |  8:48.60 | 149157 | 188816
      8 | 41:57.42 |  8:03.15 | 188817 | 225056
      9 | 50:00.57 |  7:41.73 | 225057 | 259704
     10 | 57:42.55 |  5:16.52 | 259705 | 283456
     11 | 62:59.32 |  5:09.28 | 283457 | 306659
     12 | 68:08.60 |  3:32.35 | 306660 | 322594
     13 | 71:41.20 |  5:26.40 | 322595 | 347084


范围状态及错误

已选择范围

     文件名 E:\天籁坊原抓\普罗音像:赵季平《电影音乐》Q104\趙季平 Zhao Jiping - 電影音乐 Electric Shadows.wav

     峰值电平 99.9 %
     抓取速度 1.9 X
     范围质量 100.0 %
     复制 CRC 47811606
     复制成功

没有错误发生


AccurateRip 摘要

音轨  1  不能准确地校验 (确认 8)  [5E980667], 返回 AccurateRip [7A58B247]  (AR v2)
音轨  2  不能准确地校验 (确认 9)  [CC23E005], 返回 AccurateRip [FE0A0D0F]  (AR v2)
音轨  3  不能准确地校验 (确认 9)  [14697385], 返回 AccurateRip [30AAD15F]  (AR v2)
音轨  4  不能准确地校验 (确认 9)  [C72C725E], 返回 AccurateRip [F8BC486B]  (AR v2)
音轨  5  不能准确地校验 (确认 9)  [3CBB3EA2], 返回 AccurateRip [608BF83E]  (AR v2)
音轨  6  不能准确地校验 (确认 9)  [04606ABD], 返回 AccurateRip [2B7A33F5]  (AR v2)
音轨  7  不能准确地校验 (确认 9)  [F243659B], 返回 AccurateRip [5A42C3AF]  (AR v2)
音轨  8  不能准确地校验 (确认 9)  [09FF334D], 返回 AccurateRip [E6C6E8C0]  (AR v2)
音轨  9  不能准确地校验 (确认 9)  [EF5B9D13], 返回 AccurateRip [F14277E5]  (AR v2)
音轨 10  不能准确地校验 (确认 9)  [5D50FDBE], 返回 AccurateRip [6DA4B1B9]  (AR v2)
音轨 11  不能准确地校验 (确认 9)  [04EA50B1], 返回 AccurateRip [F5647BC5]  (AR v2)
音轨 12  不能准确地校验 (确认 9)  [A89F9232], 返回 AccurateRip [FDBFBAD5]  (AR v2)
音轨 13  不能准确地校验 (确认 9)  [C04354B3], 返回 AccurateRip [CFE5563D]  (AR v2)

没有音轨被准确核实
你的版本可能与数据库的版本不同

状态报告结尾

---- CUETools DB Plugin V2.1.6

[CTDB TOCID: T0LtGsxBjgQKmf5yUcNOFRKrhZ4-] found
Submit result: T0LtGsxBjgQKmf5yUcNOFRKrhZ4- has been confirmed
Track | CTDB Status
  1   | (7/7) Accurately ripped
  2   | (7/7) Accurately ripped
  3   | (7/7) Accurately ripped
  4   | (7/7) Accurately ripped
  5   | (7/7) Accurately ripped
  6   | (7/7) Accurately ripped
  7   | (7/7) Accurately ripped
  8   | (7/7) Accurately ripped
  9   | (7/7) Accurately ripped
10   | (7/7) Accurately ripped
11   | (7/7) Accurately ripped
12   | (7/7) Accurately ripped
13   | (6/7) Accurately ripped


==== 记录校验日志 9DBA2943F6A148846EA3C92EA8839016EFE9ACF20B2979184F29C21C5964F26F ====
回复 支持 反对

使用道具 举报

发表于 2017-1-6 05:04:49 | 显示全部楼层
都是经典电影,感谢。
回复 支持 反对

使用道具 举报

发表于 2017-1-6 11:46:21 | 显示全部楼层
听过 《大宅门》的配乐
赵季平的作曲喜欢听
谢谢分享!
回复 支持 反对

使用道具 举报

发表于 2017-1-6 17:02:16 | 显示全部楼层
很喜欢赵季平的音乐,这些电影音乐还没有,谢谢分享!
回复 支持 反对

使用道具 举报

发表于 2017-1-6 21:11:16 | 显示全部楼层
纯中国风格很不错,感谢分享赵季平
回复 支持 反对

使用道具 举报

发表于 2017-1-6 21:41:13 | 显示全部楼层
毫不怀疑的高水准音乐,情感真挚美好!
回复 支持 反对

使用道具 举报

发表于 2017-1-7 14:47:54 | 显示全部楼层
一直很欣赏赵季平老师的音乐!
回复 支持 反对

使用道具 举报

发表于 2017-1-9 00:32:25 | 显示全部楼层
这张电影配乐经典
回复 支持 反对

使用道具 举报

发表于 2017-1-10 21:40:11 | 显示全部楼层
赵季平创作了许多
乡土气息浓厚的电影音乐,
每一个音符都仿佛那个时代的缩影,
每首乐曲都直击心底,
每一首熟悉的旋律响起,
眼前都会浮起那些经典的令人难忘的画面,
。。。
谢谢房子分享,
周二晚问好~
回复 支持 反对

使用道具 举报

发表于 2017-1-26 05:28:58 | 显示全部楼层
从大红灯笼高高挂开始听赵季平老师的配乐,感谢楼主的分享!
回复 支持 反对

使用道具 举报

您需要登录后才可以回帖 登录 | 邀请注册

本版积分规则

Archiver|小黑屋|清风文摘 ( 津ICP备14006513号

GMT+8, 2017-3-29 23:14 , Processed in 0.252640 second(s), 25 queries .

Powered by Discuz! X3.2

© 2001-2013 Comsenz Inc.

快速回复 返回顶部 返回列表